<?xml version="1.0" standalone="no"?>
<!DOCTYPE svg PUBLIC "-//W3C//DTD SVG 1.1//EN" "http://www.w3.org/Graphics/SVG/1.1/DTD/svg11.dtd" >
<svg xmlns="http://www.w3.org/2000/svg">
<metadata>Generated by IcoMoon</metadata>
<defs>
<font id="icomoon" horiz-adv-x="1024">
<font-face units-per-em="1024" ascent="960" descent="-64" />
<missing-glyph horiz-adv-x="1024" />
<glyph unicode="&#x20;" horiz-adv-x="512" d="" />
<glyph unicode="&#xe900;" glyph-name="baccarat" d="M348.123 741.667c-3.579-6.833-9.374-10.333-17.555-10.333-6.306 0-11.249 2.5-14.999 7.333-3.579 4.833-5.454 11.334-5.454 19.667 0 7.833 1.705 14.5 5.283 20s8.011 8.333 13.295 8.333c5.965 0 10.567-2.5 14.147-7.333s5.283-12.334 5.283-22.5v-15.167zM251.654 874.667h520.861c32.896 0 59.657-26.167 59.486-58.333v-736.666c0-32.166-26.761-58.334-59.657-58.334h-520.69c-32.895 0-59.654 26.167-59.654 58.334v736.666c0 32.167 26.759 58.333 59.654 58.333zM607.019 164.834c53.687-42.5 131.58-14.835 145.557 52.164 2.726 12.002 2.385 24.503-0.512 36.501-6.477 23.168-28.292 46.669-51.473 68.169l-7.834 7.074c-8.384 7.569-16.469 14.865-24.55 22.259-31.189 28.497-66.129 62.665-88.969 98.163-22.669-35.499-57.609-69.666-88.969-98.163-5.922-5.504-11.951-10.953-18.091-16.503-4.642-4.194-9.357-8.457-14.123-12.83-23.351-21.67-44.997-45.001-51.473-68.169-3.238-11.998-3.579-24.499-0.852-36.501 14.147-66.999 91.865-94.665 145.557-52.164 6.306 5.001 12.1 10.833 17.212 17.331-16.363-37.001-39.031-62.498-71.411-74.167v-19.332h164.13v19.332c-32.384 11.836-55.219 37.167-71.411 74.167 4.941-6.332 10.735-12.164 17.212-17.331zM390.903 537.667c-4.943-23.832-32.724-33.667-51.814-18.499-2.216 1.83-4.431 3.831-6.136 6.165 5.795-13.167 13.806-22.165 25.396-26.334v-6.831h-58.461v6.831c11.59 4.169 19.601 13.167 25.396 26.334-1.875-2.334-3.92-4.335-6.136-6.165-19.089-15.168-46.7-5.333-51.643 18.499-1.023 4.334-0.852 8.667 0.341 13 2.216 8.167 10.056 16.5 18.237 24.167 2.024 1.893 4.002 3.697 5.958 5.481 1.833 1.671 3.648 3.326 5.461 5.019 11.078 10.167 23.52 22.333 31.702 34.833 8.181-12.667 20.453-24.667 31.701-34.833 1.814-1.693 3.628-3.347 5.461-5.018 1.955-1.783 3.936-3.59 5.959-5.481 8.352-7.667 16.021-16 18.237-24.167 1.193-4.333 1.193-8.666 0.341-13zM320.512 704.833c9.885 0 18.919 3.5 27.1 10.667-2.897-21.5-17.215-32.666-43.121-34l-7.158-0.167v-29.167h2.216c17.214 0 32.384 3.5 45.337 10.333 12.954 7 23.009 16.833 29.997 29.667s10.567 28 10.567 45.5v14c-0.17 12.666-2.727 23.667-7.499 33.333s-11.42 17-20.112 22.333c-8.692 5.167-18.578 7.833-28.975 7.833s-20.112-2.667-28.804-7.667c-8.692-5-15.51-12-20.282-20.666s-7.159-18.167-7.159-28.333c0-16.334 4.431-29.167 12.954-39s20.282-14.667 34.94-14.667z" />
<glyph unicode="&#xe901;" glyph-name="ban-ca" d="M546.871 754.104c-82.057 127.351-304.421 91.274-338.863-55.35 37.934 9.713 82.375 4.163 115.706-14.339-151.576-99.599-209.349-310.979-128.244-469.785-70.471-26.517-117.452-83.409-109.198-150.63h157.131c4.92 4.932 33.966 33.301 38.41 37.466 10.634-10.483 27.617-26.829 38.569-37.466h157.132c10.953 91.119-78.249 155.26-166.179 164.356 6.031 33.301 22.697 62.903 46.505 85.414 39.52-45.948 106.499-72.004 170.144-62.596 17.301 32.841 23.966 71.693 18.573 108.54h141.099c-12.54 21.892-27.298 48.721-39.68 70.613 6.827-3.392 22.537-11.563 29.679-15.108l5.717-34.381 35.392 13.257 8.252-36.54 35.238 14.494c11.584-20.198 156.493-10.33 176.175-12.335 0.32 10.176 0.32 20.659 0 30.835-8.41 202.438-181.257 364.634-391.556 363.555zM597.82 520.832l-26.662 16.959c29.359 42.708 41.583 106.691 20.629 151.712l29.047 12.488c24.917-53.654 12.382-129.664-23.014-181.159zM661.308 505.412l-26.667 16.96c30.315 43.788 41.109 108.389 20.634 151.713l29.047 12.489c23.966-52.421 13.965-127.197-23.014-181.161zM778.283 523.298c-46.187-0.614-46.187 69.689 0 69.072 46.029 0.617 46.029-69.687 0-69.072z" />
<glyph unicode="&#xe902;" glyph-name="bau-cua" d="M938.667 771.196c-0.218 8.078-3.661 17.247-9.050 21.829l-72.832 72.911c-11.857 11.569-31.036 11.788-42.889-0.219l-28.224-28.16c-70.037 25.541-149.338 8.95-202.778-44.314-5.171-5.24-9.911-10.476-14.221-16.154-128.213 33.835-270.437 0.656-370.639-99.54-72.835-72.475-112.701-169.176-112.702-271.777-0.035-103.066 40.036-199.616 112.702-272.209 149.763-149.53 393.482-149.751 543.029 0 73.050 72.691 112.917 169.395 112.917 271.991 0 34.052-4.314 67.234-12.715 99.324 5.602 3.93 10.556 8.512 15.518 13.538 53.44 53.26 70.033 132.499 44.604 202.79l28.015 27.941c5.815 5.894 9.263 13.753 9.263 22.047zM658.317 216.516c-104.081-104.128-273.453-104.128-377.318-0.218-0.216 0.218-0.216 0.218-0.216 0.218-11.852 12.006-12.068 31.433-0.215 43.439 12.066 12.224 31.244 12.442 43.098 0.435 80.593-80.329 211.609-80.329 291.771 0 12.066 11.789 31.245 12.006 43.098 0l0.213-0.218c11.635-12.224 11.635-31.872-0.431-43.657zM634.829 481.301v-89.498c0-17.028-13.79-30.997-30.601-30.997-16.785 0.026-30.157 13.892-30.383 30.78v117.875h-106.88c-16.811 0-30.387 13.756-30.387 30.783-0.213 17.242 13.363 30.996 30.387 30.779h78.438c-12.715 25.976-19.396 55.010-19.396 84.696 0 22.703 3.878 44.532 11.422 65.27 10.125-1.963 19.823-4.366 29.739-7.42 9.694-3.275 19.179-6.77 28.659-10.699-5.606-14.844-8.836-30.779-8.623-47.151-0.213-35.145 13.363-68.107 37.926-92.992l0.862-0.874c38.357-37.982 94.17-47.804 141.359-29.688 4.096-9.382 7.548-18.991 10.778-28.813 3.017-9.604 5.602-19.648 7.543-29.909-48.7-17.899-103.65-15.061-150.844 7.859z" />
<glyph unicode="&#xe903;" glyph-name="blackjack" d="M696.32 411.145l-97.348-104.896c-6.562-7.070-10.172-16.188-10.172-25.634 0-21.278 18.074-38.592 40.29-38.592h4.297c7.974 0 15.697 2.236 22.366 6.473l40.567 25.929 40.585-25.929c6.652-4.237 14.391-6.473 22.349-6.473h4.297c22.217 0 40.29 17.314 40.29 38.592 0 9.463-3.61 18.564-10.172 25.613l-97.348 104.917zM496.64 815.816h-307.2v-441.378h276.48v191.263c0 19.152 12.885 35.338 30.72 41.43v208.685zM389.12 668.69h-30.72v-117.702c0-32.456-27.555-58.85-61.44-58.85s-61.44 26.394-61.44 58.85h30.72c0-16.228 13.777-29.427 30.72-29.427s30.72 13.199 30.72 29.427v117.702h-30.72v29.425h92.16v-29.425zM696.32 239.049l-17.417-11.119-12.749-44.757h60.331l-12.749 44.757-17.417 11.119zM880.64 580.414h-368.64c-8.474 0-15.36-6.595-15.36-14.713v-529.656c0-8.115 6.886-14.711 15.36-14.711h368.64c8.474 0 15.36 6.596 15.36 14.711v529.656c0 8.104-6.886 14.713-15.36 14.713zM527.36 550.988h30.72v-29.427h-30.72v29.427zM763.55 212.599h-4.297c-3.294 0-6.549 0.265-9.775 0.687l8.282-30.114v-29.427h-122.88l0.542 33.301 7.462 26.227c-3.136-0.397-6.302-0.661-9.498-0.661h-4.297c-39.151 0-71.010 30.515-71.010 68.019 0 16.678 6.374 32.734 17.941 45.175l120.299 129.621 120.299-129.647c11.567-12.446 17.941-28.484 17.941-45.167 0-37.5-31.859-68.015-71.010-68.015zM865.28 50.761h-30.72v29.423h30.72v-29.423zM158.72 845.241h368.64v-235.402h30.72v250.115c0 8.118-6.886 14.713-15.36 14.713h-399.36c-8.475 0-15.36-6.595-15.36-14.713v-529.654c0-8.119 6.885-14.711 15.36-14.711h322.56v29.423h-307.2v500.23z" />
<glyph unicode="&#xe904;" glyph-name="da-ga" d="M518.946 435.315c-9.724 16.021-13.892 37.389-16.67 57.421-2.778 21.367-6.946 44.070-18.061 53.417-5.555 5.341-40.282 1.335-51.396-4.006-4.169-2.671-9.725-2.671-15.281 0-4.168 2.671-6.946 8.013-6.946 13.354 1.389 52.081 30.56 106.833 72.236 140.219-8.337-1.335-16.67-4.006-25.007-6.677-52.786-16.025-102.796-49.411-144.47-93.479-87.517-94.815-88.905-215.003-81.96-320.5 0-6.677 1.389-16.026 1.389-25.374 5.557-66.769 12.503-168.26-19.448-228.356 40.285 20.032 72.236 41.399 97.24 68.105 18.059 18.697 30.561 38.729 40.285 60.096 2.778 8.013 5.556 16.026 6.946 24.038 4.167 16.026 6.946 32.047 22.226 38.724 13.891 6.677 29.172 1.335 40.285-4.006 30.56-13.35 50.011-48.073 65.29-80.124 12.501 30.716 23.616 54.754 47.232 61.431 18.057 5.342 40.286-1.335 66.679-21.367 30.558-22.703 51.396-53.419 63.898-85.47 2.782 89.476-2.778 210.999-55.565 267.085-44.454 9.348-69.457 53.419-88.905 85.47zM705.092 599.57c41.673-2.671 77.79-18.696 105.574-36.056-37.508 53.417-76.403 61.429-94.464 61.429-4.164-8.013-8.333-16.025-11.11-25.373zM703.701 547.489c25.007 5.341 55.565 2.671 84.74-4.006-23.616 13.354-52.787 25.373-86.127 28.044 0-8.012 0-16.025 1.387-24.038zM689.809 478.046c-9.724 33.387-20.834 70.778-16.67 106.835 0 1.335 0 2.671 0 4.006 1.391 17.36 6.946 33.385 16.67 46.74-29.171 21.367-81.958 52.081-140.301 61.429h-1.391c-9.724-2.671-19.447-6.677-29.171-12.019h-1.391c-37.504-22.702-66.679-65.436-75.012-109.505 22.225 4.006 48.619 4.006 62.511-8.012 18.061-17.361 22.225-44.068 26.394-69.442 2.778-17.361 5.555-36.058 12.501-48.077 20.838-34.718 41.677-65.434 72.239-72.111 1.387 0 2.778 0 2.778-1.335h9.724c20.838 0 36.117 12.019 44.45 22.703 16.67 21.367 23.616 53.414 16.67 76.117v2.671zM618.965 567.52c-19.447 0-36.117 16.025-36.117 34.721s16.67 34.721 36.117 34.721c19.447 0 36.117-16.025 36.117-34.721s-16.67-34.721-36.117-34.721zM618.965 615.595c-8.337 0-13.892-6.677-13.892-13.354 0-8.012 6.946-13.354 13.892-13.354 8.333 0 13.892 6.677 13.892 13.354 0 8.013-6.946 13.354-13.892 13.354zM688.422 730.441c1.387 4.006 5.555 8.012 9.724 9.348 15.279 4.006 26.394 14.69 26.394 28.044 0 16.025-16.67 29.379-36.117 29.379-5.559 0-11.115-1.335-15.283-2.671-6.942-2.671-15.279 0-19.447 5.341-8.333 14.69-23.616 22.702-40.286 22.702-8.333 0-18.057-2.671-25.003-6.677-4.169-2.671-8.337-2.671-12.501-1.335-4.169 1.335-8.337 4.006-9.724 8.012-12.506 32.050-41.677 52.081-75.017 52.081-44.45 0-80.569-37.392-80.569-84.131 0-32.050 16.672-60.094 44.452-74.784 9.724 2.671 19.447 5.342 29.171 6.677 22.229 4.006 44.454 4.006 65.293 1.335h2.778c55.565-6.677 106.965-34.721 143.083-58.758 2.778 6.677 4.164 13.354 4.164 21.367 0 10.683-2.778 21.367-9.724 29.379-1.387 5.341-2.778 10.683-1.387 14.69z" />
<glyph unicode="&#xe905;" glyph-name="esport" d="M896.691 621.931c-20.621 85.438-104.337 142.359-184.802 119.753-35.2-9.901-64.090-32.376-83.61-61.627-3.413-5.12-8.764-8.358-14.665-8.358h-203.222c-5.92 0-11.253 3.238-14.667 8.358-19.538 29.27-48.409 51.744-83.61 61.627-80.445 22.625-164.162-34.315-184.803-119.753-68.57-283.964-51.343-450.099 38.543-474.756 56.32-15.454 113.086 32.789 164.909 140.403-3.271 11.311-5.44 23.134-5.44 35.554 0 41.015 27.68 75.311 64.285 83.068 6.275 22.682 26.080 39.283 49.493 39.283h145.779c23.415 0 43.238-16.602 49.493-39.283 36.608-7.757 64.286-42.052 64.286-83.068 0-12.42-2.167-24.243-5.44-35.554 51.823-107.614 108.608-155.857 164.911-140.403 89.886 24.657 107.127 190.793 38.558 474.756zM325.325 558.422h-26.667v-28.233c0-15.586-11.947-28.237-26.667-28.237s-26.667 12.651-26.667 28.237v28.233h-26.667c-14.72 0-26.667 12.649-26.667 28.235s11.947 28.235 26.667 28.235h26.667v28.235c0 15.585 11.947 28.235 26.667 28.235s26.667-12.649 26.667-28.235v-28.235h26.667c14.72 0 26.667-12.649 26.667-28.235s-11.947-28.235-26.667-28.235zM458.662 520.777h-17.779c-9.813 0-17.779 8.431-17.779 18.822s7.965 18.823 17.779 18.823h17.779c9.813 0 17.775-8.433 17.775-18.823s-7.962-18.822-17.775-18.822zM583.108 520.777h-17.779c-9.813 0-17.779 8.431-17.779 18.822s7.966 18.823 17.779 18.823h17.779c9.813 0 17.775-8.433 17.775-18.823s-7.962-18.822-17.775-18.822zM751.996 671.36c14.72 0 26.667-12.649 26.667-28.235s-11.947-28.235-26.667-28.235c-14.72 0-26.667 12.649-26.667 28.235s11.947 28.235 26.667 28.235zM698.662 558.422c-14.72 0-26.667 12.649-26.667 28.235s11.947 28.235 26.667 28.235c14.72 0 26.667-12.649 26.667-28.235s-11.947-28.235-26.667-28.235zM751.996 501.952c-14.72 0-26.667 12.651-26.667 28.237 0 15.584 11.947 28.233 26.667 28.233s26.667-12.649 26.667-28.233c0-15.586-11.947-28.237-26.667-28.237zM805.333 558.422c-14.724 0-26.671 12.649-26.671 28.235s11.947 28.235 26.671 28.235c14.72 0 26.667-12.649 26.667-28.235s-11.947-28.235-26.667-28.235zM582.699 238.43h0.41c44.105 0 80 38.003 80 84.702 0 25.958-19.947 47.057-44.446 47.057h-17.779v20.706c0 9.357-7.164 16.943-16 16.943h-145.779c-8.836 0-16-7.586-16-16.943v-20.706h-17.778c-24.498 0-44.445-21.099-44.445-47.057 0-46.699 35.894-84.702 80.002-84.702h0.41c11.004-15.415 26.33-27.089 44.036-33.092v-23.377c0-10.394-7.966-18.825-17.779-18.825h-8.887c-24.482 0-44.323-20.932-44.447-46.814-0.017-5.252 3.911-9.655 8.889-9.655h177.779c4.979 0 8.909 4.386 8.892 9.655-0.128 25.882-19.968 46.814-44.446 46.814h-8.892c-9.813 0-17.775 8.431-17.775 18.825v23.377c17.724 6.003 33.050 17.694 44.036 33.092zM600.883 294.899v37.645h17.779c4.907 0 8.887-4.237 8.887-9.412 0-19.84-11.695-36.762-28.143-43.669 0.802 5.043 1.476 10.146 1.476 15.437zM396.437 323.132c0 5.175 3.983 9.412 8.889 9.412h17.778v-37.645c0-5.291 0.675-10.394 1.475-15.437-16.445 6.908-28.143 23.829-28.143 43.669z" />
<glyph unicode="&#xe906;" glyph-name="game-bai" d="M256 808.585l37.732-94.526h436.538l37.73 94.526h-512zM348.553 728.108c-8.629 13.181-19.627 24.455-32.486 33.301 13.028 8.498 24.026 19.946 32.486 33.3 8.46-13.355 19.458-24.802 32.486-33.3-12.69-8.846-23.857-20.293-32.486-33.301zM430.447 728.108c-8.631 13.181-19.629 24.455-32.488 33.301 13.029 8.498 24.026 19.946 32.488 33.3 8.29-13.355 19.456-24.802 32.486-33.3-12.86-8.846-23.859-20.293-32.486-33.301zM512.171 728.108c-8.631 13.181-19.627 24.455-32.486 33.301 13.026 8.498 24.026 19.946 32.486 33.3 8.29-13.355 19.456-24.802 32.486-33.3-12.86-8.846-23.859-20.293-32.486-33.301zM593.894 728.108c-8.631 13.181-19.627 24.455-32.486 33.301 13.026 8.498 24.026 19.946 32.486 33.3 8.457-13.355 19.456-24.802 32.486-33.3-12.693-8.846-23.689-20.293-32.486-33.301zM675.785 728.108c-8.627 13.181-19.627 24.455-32.486 33.301 13.030 8.498 24.026 19.946 32.486 33.3 8.29-13.355 19.46-24.802 32.486-33.3-12.86-8.846-23.855-20.293-32.486-33.301zM675.618 874.667l-42.978-52.032h85.952l-42.974 52.032zM566.652 874.667l-42.978-52.032h85.956l-42.978 52.032zM457.685 874.667l-42.976-52.032h85.954l-42.978 52.032zM348.553 874.667l-42.977-52.032h85.954l-42.977 52.032zM299.485 700.184l11.167-27.924h403.034l11.17 27.924h-425.371zM542.455 397.18c14.72-15.087 23.689-36.075 23.689-58.97 0-46.135-36.715-83.772-81.724-83.772-23.689 0-46.020 10.752-61.251 28.446-15.397-17.694-37.731-28.446-61.251-28.446-45.176 0-81.723 37.636-81.723 83.772v-78.916c0-131.469 103.889-237.961 232.312-237.961 64.128 0 122.163 26.709 164.292 69.722 41.963 43.017 68.019 102.677 68.019 168.414v137.886l-202.364-0.175zM511.829 599.068c10.492-4.163 14.891-10.753 15.906-12.661h26.901c-33.502 54.634-117.76 38.157-117.76 38.157 21.487-18.905 25.549-54.461 25.549-54.461h41.621c15.906 2.775 21.321 13.008 22.336 15.61h-31.471v13.182l16.917 0.173zM323.511 559.176v-92.096c24.872 0 45.007 20.638 45.007 46.135 0 25.494-20.135 45.96-45.007 45.96zM522.829 559.176c-24.87 0-45.009-20.64-45.009-46.135 0-25.498 20.139-46.135 45.009-46.135s45.009 20.638 45.009 46.135c0 25.495-20.139 46.135-45.009 46.135zM391.529 456.674c6.937-6.592 14.72-15.091 32.994-15.091s26.058 8.499 32.995 15.091h-65.99zM440.090 492.228l-15.566-11.273-15.567 11.273-28.256-21.508h87.647l-28.258 21.508zM560.73 621.442c-42.637 47.176-122.671 31.22-126.054 30.526-3.721-0.694-6.093-4.509-5.244-8.325 0.674-3.816 4.399-6.244 7.953-5.377 0.674 0.174 75.968 15.089 113.195-26.363 1.353-1.561 3.213-2.255 5.073-2.255 1.694 0 3.383 0.694 4.57 1.908 2.876 2.601 3.046 7.111 0.508 9.886zM484.25 408.107c-2.368 0-4.565-0.171-6.767-0.346v10.406c0 3.814-3.046 6.938-6.767 6.938-3.725 0-6.767-3.123-6.767-6.938v-79.782c0-11.622 9.135-20.988 20.471-20.988s20.471 9.365 20.471 20.988c0 11.622-9.135 20.988-20.471 20.988-2.368 0-4.736-0.521-6.767-1.216v10.231c2.197 0.521 4.399 0.87 6.767 0.87 16.58 0 29.948-13.875 29.948-30.699s-13.534-30.703-29.948-30.703c-16.414 0-29.948 13.879-29.948 30.703v79.782c0 3.814-3.046 6.938-6.767 6.938-3.725 0-6.771-3.123-6.771-6.938v-79.782c0-24.631 19.627-44.749 43.657-44.749 24.026 0 43.652 20.117 43.652 44.749 0 24.627-19.627 44.745-43.652 44.745-2.372 0-4.57-0.171-6.771-0.691v11.273c2.202 0.346 4.57 0.521 6.771 0.521 30.114 0 54.481-25.148 54.481-55.846 0-30.703-24.533-55.851-54.481-55.851s-54.315 24.977-54.485 55.501v80.132c0 3.814-3.042 6.938-6.767 6.938-3.722 0-6.768-3.123-6.768-6.938v-80.132c-0.169-30.699-24.534-55.501-54.482-55.501s-54.482 25.148-54.482 55.851c0 30.699 24.365 55.846 54.482 55.846 2.369 0 4.568-0.175 6.768-0.521v-11.273c-2.2 0.346-4.569 0.691-6.768 0.691-24.026 0-43.654-20.117-43.654-44.745 0-24.631 19.119-44.924 43.146-44.924s43.654 20.122 43.654 44.749v79.782c0 3.814-3.046 6.938-6.768 6.938s-6.768-3.123-6.768-6.938v-79.782c0-16.998-13.367-30.699-29.949-30.699s-29.949 13.875-29.949 30.699c0 16.823 13.367 30.699 29.949 30.699 2.369 0 4.568-0.346 6.768-0.866v-10.236c-2.2 0.87-4.399 1.216-6.768 1.216-11.337 0-20.473-9.365-20.473-20.988 0-11.618 9.137-20.983 20.473-20.983s20.473 9.365 20.473 20.983v79.782c0 3.819-3.046 6.942-6.768 6.942s-6.768-3.123-6.768-6.942v-10.406c-2.199 0.175-4.568 0.35-6.768 0.35-13.197 0-25.38-3.819-35.87-10.406-13.028 22.72-19.458 45.44-22.673 66.082-3.215 20.638-3.215 39.198-3.215 53.939 0 32.259 11.844 100.943 40.1 118.807 10.66 6.764 24.365 7.284 36.717 1.214 8.967-4.336 15.905-11.621 19.627-20.119-15.059 10.58-36.040 13.008-48.73 8.846-7.445-2.428-17.935-13.181-19.796-25.843-2.199-14.569 6.091-30.005 6.091-30.005h41.623c15.905 2.775 21.319 13.008 22.334 15.61h-31.471v13.182h16.92c9.306-3.642 13.705-9.193 15.397-11.794-1.861-10.927-5.753-21.507-9.306-31.22-4.061-10.753-7.445-17.17-7.276-25.497 0.169-10.577 4.907-15.782 8.798-18.385 8.798-5.547 21.488-2.253 28.256 0.35 8.29-7.808 22.673-15.612 35.699-4.51 8.802 7.458 8.294 17.344 6.771 22.199-1.186 3.642-5.248 5.55-8.798 4.336-3.554-1.388-5.414-5.202-4.233-8.846 0.341-0.866 0.845-3.989-2.539-6.938-8.627-7.283-19.795 6.071-20.134 6.592-2.030 2.428-5.414 3.119-8.122 1.907-4.737-2.428-15.566-5.726-19.796-3.123-1.523 0.866-2.2 3.123-2.369 6.592 0 5.55 3.046 11.273 6.429 20.292 6.091 16.13 13.536 36.249 10.49 58.276-2.369 17.691-13.705 32.954-30.118 40.932s-35.025 7.285-49.576-1.908c-17.597-11.1-29.272-35.556-36.547-61.399s-10.152-52.899-10.152-69.379c0-29.828 0-78.912 28.764-128.516-13.198-12.838-21.488-30.874-21.488-50.82 0-38.502 30.625-69.897 68.187-69.897 26.903 0 50.253 16.128 61.251 39.369 10.998-23.241 34.349-39.369 61.251-39.369 37.564 0 68.19 31.394 68.19 69.897s-30.797 69.722-68.361 69.722zM484.25 345.148c3.725 0 6.771-3.119 6.771-6.938 0-3.814-3.046-6.938-6.771-6.938-3.721 0-6.767 3.123-6.767 6.938 0 3.819 3.046 6.938 6.767 6.938zM361.75 331.273c-3.722 0-6.768 3.123-6.768 6.938 0 3.819 3.046 6.938 6.768 6.938s6.768-3.119 6.768-6.938c0-3.814-3.046-6.938-6.768-6.938zM583.403 587.968v-18.385c16.751-16.477 27.243-39.718 27.243-65.386 0-25.673-10.492-48.913-27.243-65.387v-18.56c24.87 19.076 40.947 49.604 40.947 83.772s-16.077 64.694-40.947 83.946zM583.403 548.249v-88.281c8.627 12.489 13.534 27.75 13.534 44.053s-4.907 31.74-13.534 44.228zM583.403 651.968v-15.436c48.222-23.588 81.724-74.060 81.724-132.51 0-35.209-12.181-67.644-32.486-92.966h17.259c18.274 26.193 28.932 58.278 28.932 92.966 0 66.429-39.424 123.491-95.428 147.946zM628.070 658.211h-26.057c53.807-29.312 90.355-87.415 90.355-154.19 0-34.167-9.647-65.907-26.227-92.966h15.906c15.228 27.405 23.855 59.145 23.855 92.966 0.171 63.654-30.626 120.022-77.833 154.19zM583.403 620.922v-16.304c32.657-20.986 54.481-58.276 54.481-100.771 0-37.636-17.088-71.108-43.823-92.962h20.476c23.010 23.936 37.052 56.717 37.052 92.962 0 50.82-27.58 94.701-68.186 117.075zM670.37 658.211h-20.301c42.466-37.117 69.538-92.445 69.538-154.19 0-33.472-7.953-65.041-21.995-92.966h15.228c13.030 28.1 20.305 59.665 20.305 92.966 0.166 60.358-23.859 114.992-62.775 154.19z" />
<glyph unicode="&#xe907;" glyph-name="game-nhanh" d="M868.045 804.528l-0.768 0.768c-35.567 35.605-97.493 35.605-133.060 0l-111.313-110.656-386.898 42.264c-18.168 3.33-37.359-3.842-57.318-21.773l-33.521-29.713c-6.141-5.379-10.747-12.295-13.306-18.699-0.256-0.768-1.024-2.561-1.28-3.33-2.815-8.453-3.326-17.418-1.535-26.383s5.885-16.906 11.771-23.566c5.885-6.66 13.562-11.783 22.262-14.601 0.512 0 1.024-0.256 1.536-0.512l249.745-82.991 22.263-12.553-121.291-135.245-92.375 8.452c-9.724 1.792-19.447 0.768-28.915-3.332-6.397-2.816-11.771-6.66-16.888-11.78l-36.592-36.629c-3.838-3.844-6.653-8.201-8.7-13.321-8.188-20.237 1.535-43.546 21.75-51.742l118.476-48.414 50.409-120.132c2.047-5.124 4.862-9.737 8.956-13.577 15.097-15.113 41.198-15.113 56.295 0l37.359 37.397c4.608 4.868 9.724 11.268 12.54 21.261 0 0.768 0.512 1.536 0.512 2.304 2.044 8.196 1.792 15.369 1.28 21.005l-8.704 95.031 135.364 119.108 12.796-22.797 82.394-248.721c0 0 0.768-2.304 0.768-2.816 2.816-8.452 7.936-16.137 14.588-22.029s14.839-9.993 23.539-11.785c3.328-0.768 6.912-1.024 10.236-1.024 5.376 0 11.004 0.768 16.124 2.56 8.444 2.82 15.863 7.94 22.003 14.601l28.147 31.765c0 0 1.536 1.792 2.048 2.048 17.655 19.469 25.079 38.933 21.751 55.33l-42.479 389.345 110.545 111.425c36.591 36.629 36.591 96.312 0 133.198l-0.512 0.256z" />
<glyph unicode="&#xe908;" glyph-name="khac" d="M152.263 402.155v91.691c0 20.851-16.963 37.815-37.814 37.815h-20.962c-10.867-54.959-10.876-112.32 0-167.322h20.962c20.852 0 37.814 16.964 37.814 37.815zM838.272 402.155v91.691c0 39.305 31.974 71.279 71.279 71.279h12.898c-8.926 31.465-21.461 61.726-37.397 90.289l-9.122-9.12c-27.853-27.855-72.943-27.859-100.8 0l-64.836 64.835c-27.857 27.857-27.861 72.944 0 100.803l9.118 9.121c-28.561 15.935-58.825 28.469-90.287 37.397v-12.897c0-39.303-31.974-71.278-71.279-71.278h-91.691c-39.305 0-71.279 31.975-71.279 71.278v12.897c-31.464-8.928-61.726-21.464-90.287-37.399l9.119-9.119c27.855-27.857 27.859-72.943 0-100.803l-64.836-64.836c-27.857-27.855-72.943-27.859-100.803 0l-9.119 9.119c-15.936-28.561-28.471-58.824-37.399-90.287h12.899c39.304 0 71.278-31.973 71.278-71.277v-91.691c0-39.305-31.974-71.279-71.278-71.279h-12.897c8.928-31.462 21.464-61.726 37.398-90.287l9.12 9.122c27.857 27.857 72.945 27.857 100.803 0l64.836-64.836c27.855-27.857 27.859-72.943 0-100.8l-9.121-9.122c28.561-15.936 58.825-28.471 90.289-37.397v12.894c0 39.305 31.977 71.279 71.277 71.279h91.691c39.305 0 71.279-31.974 71.279-71.279v-12.898c31.467 8.93 61.73 21.466 90.291 37.402l-9.122 9.118c-27.857 27.857-27.861 72.943 0 100.804l64.836 64.836c27.857 27.857 72.943 27.857 100.8-0.004l9.122-9.118c15.936 28.561 28.471 58.825 37.402 90.287h-12.902c-39.305 0-71.279 31.974-71.279 71.279zM512 155.191c-161.455 0-292.809 131.354-292.809 292.809s131.354 292.809 292.809 292.809c161.455 0 292.809-131.354 292.809-292.809s-131.354-292.809-292.809-292.809zM512 562.317l-110.432-110.434c-17.303-17.318-17.304-45.495 0-62.801 17.314-17.314 45.485-17.314 62.804 0l35.383 35.388c6.63 7.134 17.843 7.147 24.486 0l35.388-35.388c17.314-17.314 45.491-17.314 62.801 0 17.31 17.306 17.306 45.483-0.004 62.81l-110.426 110.426zM512 707.345c-143.003 0-259.345-116.342-259.345-259.345s116.343-259.345 259.345-259.345c143.002 0 259.345 116.343 259.345 259.345s-116.343 259.345-259.345 259.345zM646.093 365.419c-30.357-30.357-79.761-30.362-110.123 0l-7.236 7.236v-62.63c0-9.242-7.497-16.734-16.734-16.734-9.242 0-16.734 7.492-16.734 16.734v62.63l-7.232-7.236c-30.362-30.357-79.766-30.362-110.127 0-30.347 30.349-30.35 79.748-0.007 110.123l122.269 122.27c6.532 6.531 17.131 6.532 23.663 0l122.261-122.262c30.349-30.383 30.349-79.782 0-110.131zM930.513 531.661h-20.962c-20.851 0-37.815-16.964-37.815-37.815v-91.691c0-20.851 16.964-37.815 37.815-37.815h20.962c10.867 54.959 10.876 112.32 0 167.322zM798.793 226.048l-64.836-64.836c-14.78-14.775-14.784-38.694-0.004-53.478l14.827-14.822c46.541 31.177 87.108 71.731 118.31 118.315l-14.822 14.822c-14.775 14.775-38.694 14.78-53.474 0zM225.209 226.048c-14.781 14.78-38.697 14.78-53.477 0l-14.823-14.822c31.175-46.545 71.731-87.113 118.311-118.315l14.823 14.822c14.779 14.78 14.779 38.694 0 53.478l-64.835 64.836zM557.845 88.265h-91.691c-20.851 0-37.815-16.964-37.815-37.815v-20.962c54.959-10.867 112.32-10.876 167.322 0v20.962c0 20.851-16.964 37.815-37.815 37.815zM466.155 807.737h91.691c20.851 0 37.815 16.963 37.815 37.814v20.962c-54.959 10.867-112.32 10.876-167.322 0v-20.962c0-20.852 16.964-37.814 37.815-37.814zM225.209 669.955l64.836 64.836c14.779 14.778 14.779 38.7 0 53.477l-14.823 14.823c-46.543-31.175-87.111-71.732-118.312-118.312l14.823-14.823c14.776-14.779 38.697-14.781 53.475-0.002zM798.793 669.955c14.775-14.779 38.694-14.779 53.474 0l14.822 14.823c-31.177 46.545-71.731 87.112-118.31 118.313l-14.822-14.823c-14.784-14.781-14.78-38.698 0-53.477l64.836-64.836z" />
<glyph unicode="&#xe909;" glyph-name="livesport" d="M844.621 832h-382.135c-28.326 0-51.381-23.768-51.381-52.965v-172.137c0-29.197 23.055-52.965 51.381-52.965h382.135c28.322 0 51.379 23.768 51.379 52.965v172.137c0 29.197-23.057 52.965-51.379 52.965zM547.58 630.070h-51.379c-7.091 0-12.843 5.929-12.843 13.242v99.31c0 7.313 5.751 13.242 12.843 13.242 7.095 0 12.847-5.929 12.847-13.242v-86.068h38.532c7.095 0 12.847-5.929 12.847-13.241s-5.751-13.242-12.847-13.242zM608.593 643.311c0-7.313-5.751-13.242-12.843-13.242-7.095 0-12.847 5.929-12.847 13.242v99.31c0 7.313 5.751 13.242 12.847 13.242 7.091 0 12.843-5.929 12.843-13.242v-99.31zM723.413 738.063l-35.324-99.31c-4.105-11.54-20.006-11.558-24.115 0l-35.324 99.31c-2.445 6.865 0.973 14.473 7.637 16.99 6.656 2.521 14.037-1.007 16.482-7.874l23.262-65.405 23.262 65.405c2.441 6.864 9.822 10.394 16.482 7.874 6.66-2.518 10.082-10.125 7.637-16.99zM791.633 706.208c7.095 0 12.847-5.929 12.847-13.242s-5.751-13.241-12.847-13.241h-22.477v-23.172h40.141c7.091 0 12.843-5.929 12.843-13.241s-5.751-13.242-12.843-13.242h-52.988c-7.091 0-12.843 5.929-12.843 13.242v99.31c0 7.313 5.751 13.242 12.843 13.242h52.988c7.091 0 12.843-5.929 12.843-13.242s-5.751-13.241-12.843-13.241h-40.141v-23.172h22.477zM555.264 351.223c-6.029 46.379-19.951 90.611-41.485 131.785-1.771 3.388-4.919 5.811-8.576 6.583-43.934 9.284-89.679 9.289-133.61 0-3.656-0.772-6.803-3.196-8.574-6.583-21.535-41.178-35.459-85.406-41.488-131.785-0.485-3.733 0.623-7.522 3.041-10.347 29.97-34.982 67.253-62.844 108.827-81.327 3.183-1.412 6.814-1.412 9.997 0 41.574 18.483 78.857 46.345 108.826 81.327 2.419 2.825 3.529 6.613 3.042 10.347zM292.687 555.986c-37.046-8.2-75.383-10.878-113.97-7.633-4.985 0.419-9.752-2.217-12.199-6.714-19.475-35.805-32.483-75.817-37.393-118.36-0.593-5.133 1.758-10.172 6.042-12.86 32.646-20.489 62.329-45.862 87.917-75.273 3.381-3.887 8.674-5.333 13.489-3.721l51.412 17.22c4.632 1.553 8.026 5.67 8.727 10.641 6.549 46.511 20.563 90.961 41.789 132.544 2.269 4.446 1.872 9.835-0.99 13.901l-31.78 45.091c-2.98 4.224-8.089 6.26-13.042 5.163zM741.636 410.415c-32.644-20.476-62.332-45.85-87.923-75.264-3.371-3.887-8.67-5.346-13.487-3.721l-51.413 17.212c-4.625 1.557-8.026 5.679-8.717 10.641-6.554 46.511-20.57 90.97-41.796 132.548-2.261 4.45-1.877 9.83 0.998 13.901l11.452 16.26c2.419 3.426 6.281 5.457 10.394 5.457h151.381c3.076 0 5.905-1.801 7.228-4.659 14.234-30.793 23.855-64.277 27.921-99.516 0.593-5.133-1.749-10.163-6.037-12.86zM213.123 573.516c26.734 0.185 53.449 3.38 79.6 9.597 3.343 0.794 6.244 2.967 8.010 6 13.85 23.773 25.072 49.044 33.511 75.265 3.481 10.813-6.968 20.907-17.143 16.456-44.012-19.256-82.871-48.655-113.804-85.342-7.283-8.638-1.275-22.052 9.826-21.975zM367.958 72.307c45.823-10.961 94.135-11.187 140.859-0.004 10.82 2.586 13.619 17.054 4.595 23.727-21.79 16.111-45.286 29.769-70.063 40.614-3.157 1.382-6.741 1.382-9.899 0-24.774-10.846-48.273-24.499-70.061-40.61-9.015-6.665-6.238-21.141 4.568-23.727zM728.265 369.314c-21.594-16.38-41.451-35.2-59.11-56.132-2.253-2.671-3.358-6.187-3.059-9.711 2.347-27.588 7.667-54.797 15.77-81.097 3.358-10.884 17.553-12.659 23.283-2.889 24.038 40.981 39.445 87.915 43.597 138.103 0.943 11.354-11.575 18.479-20.48 11.725zM425.554 170.645v54.942c0 5.184-2.932 9.903-7.514 12.036-41.452 19.302-78.788 47.27-109.405 81.946-3.385 3.836-8.642 5.252-13.425 3.652l-50.7-16.981c-4.815-1.617-8.272-5.995-8.793-11.187-3.926-39.241-13.449-77.696-28.142-114.005-1.93-4.77-0.963-10.27 2.446-14.059 27.444-30.515 60.556-55.535 97.592-73.271 4.555-2.185 9.939-1.434 13.749 1.937 28.983 25.664 61.556 46.916 96.588 62.912 4.634 2.116 7.604 6.857 7.604 12.079zM632.29 306.24l-50.701 16.981c-4.783 1.604-10.039 0.183-13.427-3.648-30.613-34.679-67.951-62.647-109.402-81.95-4.582-2.133-7.518-6.848-7.518-12.032v-54.946c0-5.218 2.974-9.963 7.603-12.075 35.029-15.996 67.605-37.244 96.589-62.912 3.81-3.375 9.19-4.122 13.747-1.941 37.035 17.737 70.148 42.761 97.591 73.276 3.409 3.789 4.378 9.289 2.445 14.059-14.69 36.309-24.213 74.765-28.139 114.005-0.521 5.193-3.977 9.57-8.789 11.183zM515.866 527.45c2.91 0 4.591-3.401 2.876-5.828-2.918-4.134-7.881-6.17-12.762-5.21-44.51 8.802-90.655 8.802-135.162 0-4.881-0.96-9.842 1.075-12.765 5.21l-31.55 44.774c-2.97 4.221-3.276 9.848-0.739 14.367 19.235 34.179 33.477 71.139 42.292 109.489 0.894 3.891 2.848 6.29 5.298 7.847 5.266 3.348 12.058-0.786 12.058-7.164v-84.036c0-43.878 34.505-79.45 77.068-79.45h53.385zM128.050 357.589c4.154-50.189 19.561-97.122 43.597-138.103 5.732-9.771 19.929-7.996 23.283 2.889 8.105 26.295 13.426 53.508 15.772 81.097 0.3 3.524-0.808 7.040-3.060 9.711-17.66 20.932-37.519 39.753-59.113 56.132-8.9 6.754-21.419-0.371-20.48-11.725z" />
<glyph unicode="&#xe90a;" glyph-name="lo-de" d="M436.719 523.281h50.202v-50.202h-50.202v50.202zM235.928 272.29h50.198v-50.197h-50.198v50.197zM436.719 272.29h50.202v-50.197h-50.202v50.197zM646.127 313.873c52.198 52.198 125.606 69.572 192.179 52.51v508.284h-752.973v-803.17h528.875c-44.292 76.766-33.664 176.794 31.919 242.377zM588.578 734.47l35.494 35.495 35.494-35.497 35.499 35.497 35.494-35.495-35.499-35.497 35.499-35.495-35.494-35.495-35.499 35.495-35.494-35.495-35.494 35.495 35.494 35.495-35.494 35.497zM390.828 734.47l35.495 35.495 35.497-35.497 35.494 35.497 35.499-35.495-35.499-35.497 35.499-35.495-35.499-35.495-35.494 35.495-35.497-35.495-35.495 35.495 35.497 35.495-35.497 35.497zM193.082 734.47l35.495 35.495 35.495-35.497 35.497 35.497 35.495-35.495-35.499-35.497 35.497-35.495-35.495-35.495-35.497 35.495-35.495-35.495-35.495 35.495 35.497 35.495-35.495 35.497zM193.082 536.721l35.495 35.495 35.495-35.497 35.497 35.497 35.495-35.495-35.497-35.494 35.497-35.499-35.495-35.494-35.497 35.494-35.495-35.494-35.495 35.494 35.495 35.499-35.495 35.494zM336.324 171.891h-150.595v150.596h150.595v-150.596zM537.118 171.891h-150.595v150.596h150.595v-150.596zM537.118 422.882h-150.595v150.596h150.595v-150.596zM587.315 573.478h150.596v-150.596h-150.596v150.596zM637.513 523.281h50.197v-50.202h-50.197v50.202zM910.839 84.655c37.103 52.066 37.103 122.406 0 174.477l-51.742-51.746-35.494 35.494 51.742 51.746c-52.066 37.099-122.406 37.099-174.477 0l51.746-51.746-35.494-35.494-51.746 51.746c-37.099-52.070-37.099-122.411 0-174.477l51.746 51.742 35.494-35.494-51.746-51.746c52.070-37.099 122.411-37.099 174.477 0l-51.742 51.746 35.494 35.494 51.742-51.742zM788.109 136.397l-35.494 35.494 35.494 35.499 35.494-35.499-35.494-35.494z" />
<glyph unicode="&#xe90b;" glyph-name="no-hu" d="M426.718 775.824c14.831 19.183 35.968 33.267 60.267 39.133 0.691 32.63-25.634 59.744-58.317 59.7-38.997 0.702-68.203-39.922-55.418-76.6 20-2.45 38.333-10.367 53.468-22.234zM597.833 776.258c15.019 11.616 33.152 19.383 52.919 21.8 12.77 36.683-16.414 77.298-55.42 76.6-32.606 0.037-58.935-26.92-58.351-59.483 24.503-5.7 45.854-19.733 60.851-38.917zM863.667 461.329c-19.465 0-54.72 0-79.198 0-9.263 16.115-20.762 32.375-31.804 47.433h-481.332c-11.053-15.078-22.535-31.309-31.805-47.441-16.707-0.004-79.195 0.009-79.195 0.009-41.35 0-75-33.651-75-74.999-0.203-41.647 34.643-75.281 75-74.999h27.733c-32.335-207.202 126.22-290.193 323.933-289.997 197.679-0.222 356.305 82.854 323.934 289.997h25.148c41.284-1.617 77.837 32.354 77.585 74.999 0 41.348-33.651 74.999-74.999 74.999zM197.984 361.331c-8.14 0-29.83 0-37.65 0-13.61-0.055-25.017 11.119-25 24.998-0.028 14.118 11.812 25.481 25.9 24.998 13.35-0.013 40.252 0.009 53.6 0-6.717-16.282-12.333-32.981-16.85-49.997zM476.318 429.461l35.682-35.682 35.682 35.682 35.349-35.349-71.031-71.049-71.031 71.049 35.349 35.349zM360.917 242.697l35.683 35.682c-8.898 8.9-26.795 26.795-35.683 35.682 8.815 8.815 26.545 26.551 35.35 35.366l71.049-71.049-71.049-71.031-35.35 35.349zM547.682 127.296l-35.682 35.686-35.682-35.686c-8.806 8.819-26.539 26.56-35.349 35.366l71.031 71.036 71.031-71.036-35.349-35.366zM663.083 242.697l-35.349-35.349-71.049 71.031 71.049 71.049c8.806-8.815 26.534-26.556 35.349-35.366-8.887-8.887-26.79-26.786-35.682-35.682l35.682-35.682zM876.663 364.979c-3.78-2.317-8.23-3.648-12.996-3.648h-37.653c-4.514 17.015-10.133 33.715-16.849 49.997 13.841-0.004 40.67 0.004 54.502 0 25.335-0.247 34.287-33.237 12.996-46.349zM462.784 740.275c-1.284-2.083-2.449-4.267-3.486-6.516 8.265-18.69 10.978-40.267 7.62-60.55l-0.017-0.117h90.197c-3.43 20.665-0.589 42.672 8.017 61.633-19.891 41.587-78.080 44.762-102.332 5.55zM415.651 673.092c11.86 36.771-16.337 76.006-55.667 75.783-38.247 0.653-67.881-38.698-55.684-75.783h111.351zM619.234 727.892c-12.535-14.662-16.883-36.372-10.884-54.8h111.351c17.916 61.887-59.251 102.761-100.467 54.8zM237.001 590.927c0-17.733 14.433-32.166 32.166-32.166h485.666c17.732 0 32.166 14.433 32.166 32.166s-14.434 32.166-32.166 32.166c-46.669 0.006-482.611-0.002-485.666 0-17.733 0-32.166-14.433-32.166-32.166zM167.035 821.775l34.85 35.85 61.691-59.97-34.851-35.85-61.691 59.97zM106.393 695.979l17.1 46.998 80.877-29.425-17.1-46.999-80.877 29.425zM760.572 797.324l61.687 59.97 34.85-35.85-61.687-59.97-34.85 35.85zM819.964 713.024l80.875 29.425 17.101-46.998-80.875-29.425-17.101 46.998z" />
<glyph unicode="&#xe90c;" glyph-name="poker" d="M848.969 672.258l-38.886 23.18v-287.249l73.331 131.232c12.463 22.339 15.838 48.876 9.378 73.782s-22.221 46.146-43.823 59.056zM531.614 861.636c-19.575 11.677-42.56 15.686-64.759 11.296-22.195-4.39-42.125-16.887-56.139-35.207h160.988l-40.090 23.911zM131.244 282.641c3.169-12.343 8.677-23.919 16.205-34.048s16.925-18.62 27.65-24.973l38.901-23.177v287.215l-73.332-131.251c-6.214-11.042-10.246-23.245-11.864-35.908s-0.788-25.532 2.441-37.858zM492.471 34.295c19.567-11.627 42.53-15.612 64.704-11.226 22.17 4.39 42.082 16.858 56.107 35.136h-160.922l40.111-23.91zM364.272 733.541c-0.201 0.527-0.55 0.978-1.002 1.296s-0.987 0.489-1.535 0.489c-0.547 0-1.082-0.17-1.534-0.489s-0.802-0.77-1.003-1.296l-16.119-42.562c-0.16-0.429-0.216-0.891-0.164-1.347s0.21-0.893 0.462-1.271c0.251-0.379 0.588-0.689 0.981-0.904s0.831-0.328 1.275-0.329h32.102c0.442 0.002 0.878 0.115 1.269 0.329s0.727 0.522 0.977 0.899c0.251 0.376 0.41 0.81 0.463 1.264s0 0.914-0.156 1.342l-16.016 42.579zM695.262 816.257h-366.457c-24.956-0.028-48.881-10.287-66.523-28.523s-27.558-42.96-27.572-68.743v-542.155c0.023-25.775 9.943-50.487 27.585-68.715s41.561-28.476 66.51-28.501h366.457c24.947 0.026 48.87 10.274 66.513 28.501 17.647 18.223 27.571 42.935 27.597 68.715v542.155c-0.017 25.785-9.937 50.508-27.584 68.744-17.643 18.236-41.57 28.494-66.526 28.522zM386.812 658.368h-50.275c-1.591 0-3.144-0.496-4.459-1.421s-2.329-2.238-2.911-3.767l-6.748-17.635c-1.337-3.546-3.982-6.4-7.355-7.931s-7.196-1.616-10.629-0.236c-3.433 1.381-6.194 4.114-7.677 7.599s-1.564 7.434-0.228 10.981l45.304 121.408c1.53 4.106 4.228 7.637 7.738 10.127s7.669 3.823 11.928 3.823c4.259 0 8.417-1.333 11.928-3.823s6.209-6.021 7.738-10.127l45.27-121.48c1.308-3.535 1.201-7.461-0.294-10.915s-4.258-6.153-7.679-7.503c-3.421-1.35-7.222-1.241-10.566 0.304s-5.956 4.399-7.263 7.933l-6.403 17.314c-0.562 1.566-1.574 2.918-2.901 3.874s-2.903 1.471-4.521 1.475zM524.467 362.897c-3.319-3.409-7.808-5.325-12.484-5.325-4.681 0-9.169 1.916-12.489 5.325l-82.825 85.338c-5.443 5.491-9.775 12.049-12.745 19.285s-4.519 15.014-4.558 22.874c-0.038 7.859 1.436 15.65 4.335 22.921 2.9 7.266 7.168 13.867 12.557 19.418 5.389 5.548 11.79 9.937 18.834 12.91s14.592 4.47 22.199 4.406c7.607-0.064 15.13-1.69 22.123-4.781 6.997-3.092 13.329-7.588 18.628-13.23l14.101-14.532 14.033 14.443c10.786 11.092 25.382 17.318 40.597 17.318 15.219 0 29.815-6.226 40.602-17.318 5.333-5.478 9.562-11.998 12.446-19.17 2.889-7.177 4.373-14.869 4.373-22.639 0-7.774-1.485-15.467-4.373-22.639-2.884-7.177-7.113-13.692-12.446-19.174l-82.91-85.427zM727.45 250.048l-45.218-121.481c-1.532-4.105-4.228-7.637-7.74-10.129-3.511-2.487-7.671-3.823-11.93-3.823s-8.414 1.335-11.925 3.823c-3.511 2.492-6.208 6.025-7.74 10.129l-45.303 121.408c-0.661 1.758-0.981 3.631-0.943 5.513 0.038 1.886 0.435 3.742 1.169 5.47 0.734 1.724 1.792 3.281 3.106 4.587 1.318 1.306 2.871 2.325 4.57 3.012 1.702 0.683 3.516 1.011 5.338 0.973 1.826-0.038 3.622-0.452 5.295-1.212 1.668-0.755 3.179-1.847 4.437-3.209 1.263-1.361 2.253-2.965 2.914-4.719l6.733-17.638c0.585-1.527 1.604-2.842 2.918-3.767 1.318-0.926 2.876-1.421 4.467-1.421h50.274c1.617 0.004 3.196 0.521 4.523 1.476s2.338 2.308 2.901 3.874l6.4 17.404c0.619 1.801 1.574 3.452 2.82 4.864 1.242 1.408 2.748 2.547 4.425 3.345 1.681 0.798 3.494 1.237 5.342 1.297 1.843 0.064 3.682-0.26 5.406-0.947s3.298-1.724 4.625-3.051c1.327-1.327 2.385-2.914 3.106-4.672 0.725-1.754 1.101-3.644 1.105-5.551s-0.363-3.797-1.075-5.555zM678.746 208.785h-32.119c-0.444 0-0.879-0.111-1.271-0.324-0.388-0.213-0.725-0.525-0.973-0.9-0.252-0.38-0.41-0.815-0.461-1.267s0.009-0.913 0.166-1.34l16.102-42.581c0.196-0.529 0.546-0.99 1.003-1.31 0.452-0.324 0.994-0.495 1.545-0.495s1.088 0.171 1.545 0.495c0.452 0.32 0.802 0.781 0.998 1.31l16 42.564c0.166 0.427 0.23 0.887 0.183 1.348-0.047 0.457-0.205 0.896-0.452 1.276-0.252 0.384-0.589 0.695-0.986 0.909s-0.836 0.32-1.28 0.316z" />
<glyph unicode="&#xe90d;" glyph-name="quay-so" d="M512 674.667c13.807 0 24.998 11.193 24.998 25s-11.191 25-24.998 25c-13.807 0-24.998-11.193-24.998-25s11.191-25 24.998-25zM512 474.667c13.807 0 24.998 11.191 24.998 24.998s-11.191 25.003-24.998 25.003c-13.807 0-24.998-11.196-24.998-25.003s11.191-24.998 24.998-24.998zM678.665 591.334c13.811 0 25.003 11.193 25.003 25s-11.191 25-25.003 25c-13.807 0-24.998-11.193-24.998-25s11.191-25 24.998-25zM312 408c13.807 0 25 11.191 25 24.998s-11.193 25.003-25 25.003c-13.807 0-25-11.196-25-25.003s11.193-24.998 25-24.998zM437.001 499.665c0 41.357 33.643 75.002 74.999 75.002s74.999-33.645 74.999-75.002c0-19.098-7.189-36.544-18.987-49.801l146.586-265.805c103.706 66.709 172.403 183.134 172.403 315.605 0 207.108-167.893 375.002-375.002 375.002-207.107 0-375-167.893-375-375.002 0-132.471 68.695-248.896 172.401-315.605l146.581 265.805c-11.793 13.257-18.982 30.703-18.982 49.801zM786.999 432.998c0-41.353-33.643-74.999-74.999-74.999s-74.999 33.647-74.999 74.999c0 41.357 33.643 74.999 74.999 74.999s74.999-33.643 74.999-74.999zM678.665 691.333c41.357 0 75.004-33.645 75.004-75s-33.647-75-75.004-75c-41.353 0-74.999 33.645-74.999 75s33.647 75 74.999 75zM512 774.667c41.357 0 74.999-33.645 74.999-75s-33.643-75-74.999-75c-41.357 0-74.999 33.645-74.999 75s33.643 75 74.999 75zM312 357.999c-41.355 0-75 33.647-75 74.999 0 41.357 33.645 74.999 75 74.999s75-33.643 75-74.999c0-41.353-33.645-74.999-75-74.999zM388.858 646.442c-25.61-21.513-45.243-49.625-56.777-81.294-3.697-10.15-13.285-16.451-23.493-16.451-2.842 0-5.73 0.486-8.553 1.515-12.973 4.725-19.662 19.073-14.937 32.047 14.53 39.893 39.288 75.325 71.599 102.468 10.573 8.88 26.343 7.512 35.223-3.062s7.51-26.34-3.061-35.223zM512 424.666c-4.173 0-8.26 0.358-12.25 1.020l-146.577-265.792c48.232-22.583 102.050-35.226 158.827-35.226s110.596 12.642 158.827 35.226l-146.577 265.792c-3.989-0.661-8.077-1.020-12.25-1.020zM712 408c13.807 0 24.998 11.191 24.998 24.998s-11.191 25.003-24.998 25.003c-13.807 0-24.998-11.196-24.998-25.003s11.191-24.998 24.998-24.998zM913.668 71.334h-136.905l-62.165 112.725c-13.982-8.994-28.604-17.067-43.772-24.166l48.836-88.559h-415.328l48.838 88.559c-15.168 7.104-29.793 15.172-43.772 24.166l-62.163-112.725h-136.905c-13.807 0-25-11.196-25-25.003s11.193-24.998 25-24.998h803.335c13.807 0 24.998 11.191 24.998 24.998s-11.191 25.003-24.998 25.003z" />
<glyph unicode="&#xe90e;" glyph-name="rong-ho" d="M809.993 685.914c-27.554 34.804-60.732 64.138-98.611 87.144-53.397 32.639-114.743 49.871-176.883 53.391v-88.547c69.555-5.282 134.293-34.714 184.222-84.66 8.785-8.788 8.785-23.028 0-31.817-8.789-8.788-23.031-8.788-31.817 0-41.382 41.382-94.972 65.152-152.405 70.371v-45.003c31.479-3.407 62.229-13.612 89.033-31.347 10.33-6.878 13.184-20.831 6.332-31.179-6.972-10.49-20.941-13.132-31.202-6.35-19.388 12.854-41.446 20.852-64.162 24.027v-65.445c0-12.438-10.061-22.499-22.498-22.499s-22.498 10.061-22.498 22.499v65.445c-22.716-3.176-44.774-11.174-64.161-24.027-10.283-6.789-24.302-4.065-31.202 6.35-6.855 10.348-3.999 24.301 6.329 31.179 26.805 17.734 57.559 27.94 89.034 31.347v45.003c-57.434-5.219-111.021-28.99-152.405-70.373-8.788-8.788-23.028-8.788-31.817 0s-8.788 23.028 0 31.817c49.926 49.947 114.668 79.378 184.221 84.661v88.55c-62.14-3.516-123.474-20.751-176.838-53.372-37.924-23.028-71.103-52.362-98.525-86.968-55.371-68.379-86.139-151.238-86.139-239.613v-179.998c0-62.029 51.95-112.499 114-112.499 3.559 0 6.943 0.836 9.931 2.304 24.786-28.937 61.568-47.305 102.569-47.305v68.066c-27.16 20.557-45 52.826-45 89.434 0 12.437 10.063 22.498 22.5 22.498s22.5-10.061 22.5-22.498c0-37.222 30.279-67.499 67.5-67.499s67.502 30.276 67.502 67.499v26.645c-26.133 9.318-45.001 34.061-45.001 63.356 0 12.433 10.061 22.498 22.498 22.498s22.502-10.065 22.502-22.498c0-12.416 10.103-22.502 22.498-22.502s22.498 10.086 22.498 22.502c0 12.433 10.065 22.498 22.502 22.498s22.498-10.065 22.498-22.498c0-29.295-18.867-54.037-45.001-63.356v-26.645c0-37.222 30.281-67.499 67.503-67.499 37.218 0 67.499 30.276 67.499 67.499 0 12.437 10.065 22.498 22.502 22.498 12.433 0 22.498-10.061 22.498-22.498 0-36.608-17.839-68.877-45.001-89.434v-68.066c41.003 0 77.781 18.368 102.571 47.305 2.987-1.468 6.37-2.304 9.929-2.304 62.050 0 114.001 50.47 114.001 112.499v179.998c0 88.376-30.767 171.235-86.007 239.415zM311.873 501.564c5.582 11.14 19.073 15.535 30.191 10.065l45-22.502c11.118-5.559 15.6-19.072 10.063-30.191-5.481-10.931-18.813-15.676-30.191-10.061l-45 22.498c-11.118 5.559-15.6 19.072-10.064 30.191zM377 333.999h-45c-62.051 0-112.5 50.47-112.5 112.499 0 12.437 10.063 22.502 22.5 22.502s22.5-10.065 22.5-22.502c0-37.218 30.279-67.499 67.5-67.499h45c12.436 0 22.5-10.065 22.5-22.498 0-12.437-10.063-22.502-22.5-22.502zM636.937 489.126l45.001 22.502c11.162 5.513 24.61 1.075 30.191-10.065 5.534-11.119 1.054-24.631-10.065-30.191l-45.001-22.498c-11.371-5.611-24.704-0.879-30.191 10.061-5.534 11.119-1.054 24.631 10.065 30.191zM692.002 333.999h-45.001c-12.437 0-22.502 10.065-22.502 22.502 0 12.433 10.065 22.498 22.502 22.498h45.001c37.218 0 67.499 30.281 67.499 67.499 0 12.437 10.061 22.502 22.498 22.502s22.502-10.065 22.502-22.502c0-62.029-50.449-112.499-112.499-112.499zM846.784 716.842c7.219-8.913 13.961-18.097 20.382-27.451 17.975 20.049 28.834 46.443 28.834 75.11 0 37.221-30.281 67.5-67.499 67.5-30.46 0-60.181-7.721-87.39-20.748 40.299-25.247 75.972-56.879 105.673-94.41zM156.833 689.386c6.543 9.555 13.448 18.934 20.825 28.048 29.321 36.996 64.89 68.535 105.232 93.815-27.207 13.027-56.928 20.751-87.39 20.751-37.221 0-67.5-30.279-67.5-67.5 0-28.669 10.854-55.063 28.833-75.114zM602.001 154.001c-36.941 0-69.483 18.121-90.001 45.687-20.518-27.567-53.060-45.687-90-45.687-7.707 0-15.226 0.794-22.5 2.274v-47.275c0-24.853 20.146-45.001 45.001-45.001h134.997c24.853 0 45.001 20.147 45.001 45.001v47.275c-7.275-1.481-14.793-2.274-22.498-2.274z" />
<glyph unicode="&#xe90f;" glyph-name="roulette" d="M233.21 433.289h-88.658c1.499-38.818 9.178-77.15 22.746-113.553l82.935 31.159c-9.83 26.441-15.57 54.225-17.022 82.394zM250.233 545.103l-82.935 31.162c-13.568-36.401-21.246-74.735-22.746-113.553h88.658c1.452 28.169 7.192 55.953 17.022 82.392zM304.552 634.674l-62.676 62.647c-25.742-27.879-47.040-59.553-63.147-93.911l83.156-31.205c11.33 22.658 25.683 43.673 42.667 62.47zM325.326 240.55l-62.646-62.673c27.878-25.745 59.553-47.040 93.911-63.147l31.206 83.153c-22.658 11.332-43.673 25.685-62.47 42.667zM261.885 323.797l-83.156-31.206c16.107-34.359 37.405-66.031 63.147-93.909l62.676 62.643c-16.983 18.799-31.337 39.812-42.667 62.473zM698.675 655.448l62.647 62.647c-27.883 25.742-59.554 47.040-93.914 63.146l-31.206-83.126c22.66-11.33 43.674-25.683 62.473-42.667zM762.116 572.204l83.213 31.205c-16.107 34.358-37.406 66.032-63.147 93.911l-62.733-62.647c16.981-18.796 31.334-39.812 42.667-62.47zM790.788 462.711h88.661c-1.502 38.818-9.178 77.152-22.746 113.553l-82.935-31.162c9.83-26.439 15.569-54.223 17.020-82.392zM383.735 103.296c36.401-13.568 74.735-21.244 113.553-22.746v88.661c-28.169 1.451-55.953 7.194-82.392 17.020l-31.161-82.935zM497.289 726.79v88.658c-38.818-1.5-77.152-9.178-113.553-22.746l31.161-82.935c26.439 9.829 54.223 15.569 82.392 17.023zM387.796 698.115l-31.206 83.156c-34.358-16.107-66.032-37.405-93.911-63.147l62.646-62.676c18.797 16.983 39.812 31.337 62.47 42.667zM640.265 792.703c-36.403 13.568-74.735 21.246-113.553 22.746v-88.658c28.169-1.454 55.953-7.194 82.394-17.023l31.159 82.935zM636.203 197.884l31.206-83.213c34.359 16.107 66.031 37.406 93.914 63.147l-62.647 62.733c-18.799-16.981-39.812-31.334-62.473-42.667zM526.711 169.212v-88.661c38.818 1.502 77.15 9.178 113.553 22.746l-31.159 82.935c-26.441-9.826-54.225-15.569-82.394-17.020zM719.45 261.325l62.643-62.643c25.745 27.878 47.040 59.55 63.147 93.909l-83.123 31.206c-11.332-22.66-25.685-43.674-42.667-62.473zM773.769 350.895l82.935-31.1c13.559 36.382 21.239 74.692 22.746 113.493h-88.661c-1.451-28.169-7.189-55.953-17.020-82.394zM762.116 448c0 49.468-14.669 97.825-42.155 138.956-27.482 41.131-66.543 73.189-112.247 92.12-45.7 18.93-95.991 23.884-144.508 14.233-48.519-9.651-93.085-33.472-128.064-68.451s-58.8-79.546-68.451-128.064c-9.651-48.516-4.698-98.807 14.233-144.508 18.93-45.705 50.988-84.766 92.119-112.247 41.131-27.486 89.489-42.155 138.956-42.155 66.313 0.077 129.886 26.449 176.777 73.34s73.263 110.464 73.34 176.777zM561.054 586.74l-9.813-27.733c-25.412 8.86-53.069 8.86-78.481 0l-9.796 27.762c31.753 11.113 66.342 11.103 98.091-0.029zM364.874 448c-0.022 16.704 2.809 33.289 8.371 49.037l27.748-9.796c-8.925-25.399-8.925-53.082 0-78.481l-27.748-9.796c-5.562 15.748-8.393 32.333-8.371 49.037zM512 300.873c-16.7-0.017-33.284 2.807-49.037 8.358l9.796 27.763c25.408-8.875 53.073-8.875 78.481 0l9.796-27.763c-15.753-5.551-32.337-8.375-49.037-8.358zM614.989 315.588c-4.523-0.055-8.994 0.943-13.060 2.918s-7.616 4.873-10.368 8.461c-2.748 3.588-4.625 7.77-5.478 12.207-0.853 4.442-0.657 9.020 0.572 13.372l-67.119 67.119c-4.919-1.455-10.15-1.455-15.066 0l-67.123-67.119c1.771-6.37 1.387-13.141-1.101-19.264-2.487-6.127-6.929-11.251-12.637-14.583s-12.358-4.681-18.912-3.831c-6.554 0.845-12.643 3.84-17.316 8.512-4.673 4.676-7.667 10.765-8.514 17.318s0.5 13.201 3.831 18.91c3.331 5.709 8.459 10.15 14.582 12.638s12.897 2.871 19.264 1.101l67.121 67.123c-1.455 4.915-1.455 10.146 0 15.066l-67.121 67.119c-6.367-1.771-13.141-1.387-19.264 1.101s-11.251 6.929-14.582 12.637c-3.331 5.708-4.678 12.358-3.831 18.912s3.841 12.643 8.514 17.316c4.673 4.673 10.762 7.667 17.316 8.514s13.204-0.5 18.912-3.831c5.708-3.331 10.15-8.459 12.637-14.582s2.871-12.897 1.101-19.264l67.123-67.121c4.915 1.455 10.146 1.455 15.066 0l67.119 67.121c-1.771 6.367-1.382 13.141 1.101 19.264 2.487 6.123 6.929 11.251 12.638 14.582s12.356 4.678 18.91 3.831c6.554-0.847 12.642-3.841 17.318-8.514 4.672-4.673 7.667-10.762 8.512-17.316 0.849-6.554-0.499-13.204-3.831-18.912s-8.457-10.15-14.583-12.637c-6.123-2.487-12.894-2.871-19.264-1.101l-67.119-67.119c1.455-4.919 1.455-10.15 0-15.066l67.119-67.123c4.066 1.139 8.324 1.387 12.493 0.73 4.164-0.653 8.141-2.197 11.661-4.523s6.494-5.385 8.73-8.96c2.236-3.58 3.674-7.595 4.22-11.78 0.542-4.181 0.183-8.431-1.058-12.463s-3.337-7.748-6.14-10.901c-2.803-3.153-6.251-5.662-10.112-7.364s-8.038-2.556-12.258-2.496zM644.412 448c0 8.73 2.59 17.263 7.441 24.521 4.851 7.262 11.742 12.915 19.81 16.256 8.064 3.341 16.939 4.215 25.502 2.513 8.559-1.702 16.422-5.905 22.596-12.079s10.377-14.037 12.079-22.601c1.707-8.559 0.832-17.438-2.509-25.502s-8.998-14.959-16.256-19.806c-7.262-4.851-15.795-7.441-24.525-7.441-11.703 0-22.933 4.651-31.211 12.928s-12.928 19.503-12.928 31.211zM512 874.667c-84.386 0-166.878-25.024-237.043-71.906s-124.852-113.519-157.145-191.482c-32.294-77.962-40.743-163.752-24.28-246.517s57.099-158.788 116.77-218.462c59.67-59.669 135.695-100.305 218.46-116.766 82.765-16.465 168.555-8.017 246.515 24.277 77.965 32.294 144.602 86.98 191.484 157.146s71.906 152.657 71.906 237.043c-0.128 113.12-45.12 221.569-125.111 301.557-79.987 79.988-188.437 124.981-301.555 125.11zM512 50.761c-78.566 0-155.369 23.296-220.695 66.944-65.326 43.652-116.241 105.69-146.307 178.278-30.066 72.585-37.933 152.457-22.605 229.517 15.328 77.056 53.161 147.837 108.716 203.392s126.336 93.389 203.392 108.716c77.060 15.328 156.932 7.461 229.517-22.605 72.589-30.066 134.626-80.982 178.278-146.308 43.648-65.326 66.944-142.129 66.944-220.695-0.115-105.318-42.005-206.289-116.476-280.764-74.47-74.47-175.445-116.361-280.764-116.476z" />
<glyph unicode="&#xe910;" glyph-name="sicbo" d="M489.643 69.453c12.015 0 21.756 9.498 21.756 21.214 0 11.712-9.741 21.21-21.756 21.21-12.019 0-21.76-9.498-21.76-21.21 0-11.716 9.741-21.214 21.76-21.214zM810.65 411.162c-0.405 22.127-40.026 47.117-101.342 63.91-0.503 0.090-0.986 0.179-1.438 0.32-54.677 14.869-124.228 23.053-195.861 23.053s-141.187-8.183-195.861-23.053c-0.516-0.154-1.031-0.277-1.579-0.337-61.176-16.794-100.72-41.719-101.204-63.817v-0.38l-0.031-0.137c0.078-11.904 11.379-22.814 23.101-30.997 8.987 3.721 18.85 5.777 29.213 5.777h247.829c0.311 0 0.593-0.090 0.909-0.090h243.904c10.334 0 20.181-2.044 29.15-5.73 14.989 10.389 23.164 21.239 23.228 31.053l-0.030 0.124 0.013 0.303zM489.643 264.559c12.015 0 21.756 9.498 21.756 21.21 0 11.716-9.741 21.214-21.756 21.214-12.019 0-21.76-9.498-21.76-21.214 0-11.712 9.741-21.21 21.76-21.21zM806.336 550.177c-2.752 16.137-7.142 32.38-13.052 48.319-42.167 115.701-155.187 193.368-281.263 193.368-79.804 0-154.813-30.278-211.207-85.256-31.588-30.933-55.174-67.305-70.038-108.051-5.752-15.543-10.097-31.817-12.926-48.471-0.031-0.32-0.078-0.64-0.125-0.93-0.25-1.387-0.328-2.804-0.563-4.19 53.861 38.369 168.273 62.993 294.876 62.993 126.605 0 241.22-24.67 295.031-63.115-0.235 1.417-0.311 2.91-0.559 4.297-0.064 0.32-0.111 0.671-0.141 0.991l-0.034 0.046zM389.578 167.006c12.016 0 21.757 9.498 21.757 21.214 0 11.712-9.741 21.21-21.757 21.21s-21.757-9.498-21.757-21.21c0-11.716 9.741-21.214 21.757-21.214zM512.009 577.514c-121.806 0-234.42-24.015-280.201-59.75-8.425-6.566-18.444-16.7-18.444-27.823v-26.756c21.257 16.273 52.939 30.4 94.077 41.553 0.531 0.137 1.047 0.26 1.594 0.337 57.925 15.569 128.058 23.817 202.973 23.817s145.169-8.247 203.11-23.863c0.499-0.077 1.003-0.183 1.455-0.307 41.152-11.166 72.836-25.293 94.093-41.566v26.756c0 11.123-10.018 21.274-18.428 27.81-45.811 35.747-158.426 59.792-280.23 59.792zM375.167 826.089v-32.899c42.451 18.895 88.795 29.165 136.855 29.165 48.064 0 94.703-10.514 136.845-29.302v33.036c0 26.788-22.353 48.578-49.83 48.578h-174.040c-27.478 0-49.829-21.805-49.829-48.578zM758.306 354.935h-184.060c8.892-12.023 14.285-26.65 14.285-42.577v-98.876c9.114 15.68 26.18 26.423 45.952 26.423 29.231 0 53.018-23.177 53.018-51.686s-23.774-51.686-53.018-51.686c-19.772 0-36.838 10.726-45.952 26.419v-98.876c0-16-5.44-30.69-14.409-42.743h184.201c24.162 0 43.81 19.153 43.81 42.714v248.346c0 23.45-19.665 42.543-43.827 42.543zM734.532 38.993c-29.227 0-53.018 23.177-53.018 51.686s23.774 51.686 53.018 51.686c29.244 0 53.018-23.177 53.018-51.686s-23.774-51.686-53.018-51.686zM734.549 69.453c12.015 0 21.756 9.498 21.756 21.214 0 11.712-9.741 21.21-21.756 21.21-12.019 0-21.76-9.498-21.76-21.21 0-11.716 9.741-21.214 21.76-21.214zM289.514 264.559c12.016 0 21.757 9.498 21.757 21.21 0 11.716-9.741 21.214-21.757 21.214s-21.757-9.498-21.757-21.214c0-11.712 9.741-21.21 21.757-21.21zM634.483 167.006c12.019 0 21.76 9.498 21.76 21.214 0 11.712-9.741 21.21-21.76 21.21-12.015 0-21.756-9.498-21.756-21.21 0-11.716 9.741-21.214 21.756-21.214zM514.398 354.935h-3.78c-0.158 0-0.299 0.090-0.452 0.090h-244.503c-24.133 0-43.764-19.136-43.764-42.667v-248.269c0-23.526 19.631-42.679 43.764-42.679h247.831c24.132 0 43.763 19.153 43.763 42.679v248.269c0 23.223-19.162 42.091-42.859 42.577zM289.514 337.459c29.228 0 53.017-23.181 53.017-51.691s-23.773-51.686-53.017-51.686c-29.244 0-53.017 23.177-53.017 51.686s23.773 51.691 53.017 51.691zM289.514 38.993c-29.228 0-53.017 23.177-53.017 51.686s23.773 51.686 53.017 51.686c29.244 0 53.017-23.177 53.017-51.686s-23.773-51.686-53.017-51.686zM389.578 136.546c-29.228 0-53.017 23.177-53.017 51.686s23.773 51.686 53.017 51.686c29.244 0 53.016-23.177 53.016-51.686s-23.773-51.686-53.016-51.686zM489.643 38.993c-29.231 0-53.018 23.177-53.018 51.686s23.774 51.686 53.018 51.686c29.244 0 53.018-23.177 53.018-51.686s-23.774-51.686-53.018-51.686zM489.643 234.099c-29.231 0-53.018 23.177-53.018 51.686s23.774 51.686 53.018 51.686c29.244 0 53.018-23.177 53.018-51.686s-23.774-51.686-53.018-51.686zM289.514 69.453c12.016 0 21.757 9.498 21.757 21.214 0 11.712-9.741 21.21-21.757 21.21s-21.757-9.498-21.757-21.21c0-11.716 9.741-21.214 21.757-21.214z" />
<glyph unicode="&#xe911;" glyph-name="slots" d="M815.761 432.196h27.593c14.063 0 25.463 11.315 25.463 25.28v204.399c7.573-1.394 15.381-2.122 23.364-2.122 9.468 0 18.697 1.026 27.58 2.973v-205.249c0-41.89-34.206-75.849-76.407-75.849h-27.593v-139.166c0-27.874-22.733-50.462-50.829-50.462h-586.102c-28.060 0-50.83 22.656-50.83 50.462v328.904c0 27.872 22.732 50.461 50.83 50.461h586.102c28.058 0 50.829-22.657 50.829-50.461v-139.169zM204.418 482.679v-151.531c0-20.949 17.033-38.012 38.172-38.012h76.494c21.055 0 38.171 17.075 38.171 38.012v151.531c0 20.949-17.033 38.012-38.171 38.012h-76.495c-21.055 0-38.17-17.079-38.17-38.012zM586.509 482.679v-151.531c0-20.949 17.033-38.012 38.17-38.012h76.493c21.056 0 38.174 17.075 38.174 38.012v151.531c0 20.949-17.037 38.012-38.174 38.012h-76.493c-21.056 0-38.17-17.079-38.17-38.012zM395.463 482.679v-151.531c0-20.949 17.033-38.012 38.171-38.012h76.493c21.056 0 38.174 17.075 38.174 38.012v151.531c0 20.949-17.033 38.012-38.174 38.012h-76.493c-21.056 0-38.171-17.079-38.171-38.012zM255.363 470.123h50.945v-126.421h-50.945v126.421zM637.453 470.123h50.944v-126.421h-50.944v126.421zM446.409 470.123h50.944v-126.421h-50.944v126.421zM892.177 697.678c-49.237 0-89.152 39.619-89.152 88.495s39.915 88.495 89.152 88.495c49.242 0 89.156-39.621 89.156-88.495s-39.915-88.495-89.156-88.495z" />
<glyph unicode="&#xe912;" glyph-name="table-games" d="M782.767 208l-14.767 36.928-14.767-36.928 14.767-36.928 14.767 36.928zM384 144c-167.632 0-304 136.367-304 304 0 67.392 22.8 133.216 64 186.288v48.832c-61.376-62.576-96-146.464-96-235.12 0-185.263 150.736-336 336-336h256c5.342 0 10.658 0.465 16 0.721v31.71c-5.329-0.273-10.658-0.431-16-0.431h-256zM688 80h160v256h-160v-256zM721.135 213.935l32 80c2.449 6.080 8.32 10.065 14.865 10.065s12.416-3.985 14.865-10.065l32-80c1.519-3.806 1.519-8.064 0-11.87l-32-80c-2.449-6.080-8.32-10.065-14.865-10.065s-12.416 3.985-14.865 10.065l-32 80c-1.502 3.806-1.502 8.064 0 11.87zM640 784h-256c-5.344 0-10.656-0.464-16-0.72v-31.712c5.328 0.272 10.672 0.432 16 0.432h256c167.633 0 304-136.368 304-304 0-67.375-22.784-133.218-64-186.287v-48.802c61.376 62.562 96 146.432 96 235.089 0 185.28-150.737 336-336 336zM241.232 688l14.768-36.928 14.768 36.928-14.768 36.928-14.768-36.928zM336 816h-160v-256h160v256zM302.864 682.048l-32-80c-2.448-6.064-8.32-10.048-14.864-10.048s-12.416 3.984-14.864 10.048l-32 80c-1.52 3.824-1.52 8.064 0 11.888l32 80c2.448 6.080 8.32 10.064 14.864 10.064s12.416-3.984 14.864-10.048l32-80c1.504-3.824 1.504-8.080 0-11.904zM526.767 448l-14.767 36.928-14.767-36.928 14.767-36.928 14.767 36.928zM432 320h160v256h-160v-256zM465.135 453.952l32 80c2.449 6.064 8.32 10.048 14.865 10.048s12.416-3.984 14.865-10.048l32-80c1.519-3.823 1.519-8.064 0-11.887l-32-80c-2.449-6.080-8.32-10.065-14.865-10.065s-12.416 3.985-14.865 10.065l-32 80c-1.502 3.806-1.502 8.064 0 11.887zM880 320.401c20.736 39.070 32 82.944 32 127.599 0 149.984-122.018 272-272 272h-256c-5.36 0-10.656-0.576-16-0.88v-175.12c0-8.832-7.152-16-16-16h-192c-8.848 0-16 7.168-16 16v31.6c-20.736-39.088-32-82.945-32-127.6 0-149.982 122.016-272 272-272h256c5.376 0 10.658 0.576 16 0.879v175.121c0 8.849 7.151 16 16 16h192c8.849 0 16-7.151 16-16v-31.599zM624 304c0-8.849-7.151-16-16-16h-192c-8.848 0-16 7.151-16 16v288c0 8.832 7.152 16 16 16h192c8.849 0 16-7.168 16-16v-288z" />
<glyph unicode="&#xe913;" glyph-name="tai-xiu" d="M614.549 527.006l79.484 79.585-26.074 209.029-154.103-128.576 38.997-156.13 61.696-3.908zM633.903 738.417c8.414 0 15.236-6.831 15.236-15.258s-6.822-15.258-15.236-15.258c-8.414 0-15.236 6.831-15.236 15.258s6.822 15.258 15.236 15.258zM588.19 585.841c8.414 0 15.236-6.831 15.236-15.258s-6.822-15.258-15.236-15.258c-8.418 0-15.241 6.831-15.241 15.258s6.822 15.258 15.241 15.258zM536.38 325.884l193.89-12.971-90.837 181.961-206.857 12.941 103.804-181.931zM664.38 372.237c8.414 0 15.236-6.831 15.236-15.258s-6.822-15.258-15.236-15.258c-8.418 0-15.241 6.831-15.241 15.258s6.822 15.258 15.241 15.258zM618.667 479.040c8.414 0 15.236-6.835 15.236-15.258 0-8.427-6.822-15.258-15.236-15.258-8.418 0-15.241 6.831-15.241 15.258 0 8.422 6.822 15.258 15.241 15.258zM572.949 372.237c8.418 0 15.241-6.831 15.241-15.258s-6.822-15.258-15.241-15.258c-8.414 0-15.236 6.831-15.236 15.258s6.822 15.258 15.236 15.258zM512 479.040c8.414 0 15.236-6.835 15.236-15.258 0-8.427-6.822-15.258-15.236-15.258-8.418 0-15.241 6.831-15.241 15.258 0 8.422 6.822 15.258 15.241 15.258zM758.857 323.9l6.4-12.834c5.129-10.185 4.126-22.391-2.607-31.595l-41.417-56.99c39.68 7.863 77.21 24.158 110.063 47.787-3.307 18.539-21.5 45.376-72.439 53.632zM677.393 213.982l49.826 68.57-192.196 12.847-55.799-83.917c65.907-7.27 132.463-6.43 198.17 2.5zM649.139 265.434c8.418 0 15.241-6.831 15.241-15.258s-6.822-15.258-15.241-15.258c-8.414 0-15.236 6.831-15.236 15.258s6.822 15.258 15.236 15.258zM445.133 215.266l64.213 96.55-105.004 184.004-103.009-154.709 63.101-110.635c26.583-6.635 53.528-11.712 80.699-15.211zM405.332 433.267c8.416 0 15.238-6.831 15.238-15.258s-6.822-15.258-15.238-15.258c-8.416 0-15.238 6.831-15.238 15.258s6.822 15.258 15.238 15.258zM405.332 356.979c8.416 0 15.238-6.831 15.238-15.258s-6.822-15.258-15.238-15.258c-8.416 0-15.238 6.831-15.238 15.258s6.822 15.258 15.238 15.258zM405.332 280.691c8.416 0 15.238-6.831 15.238-15.258s-6.822-15.258-15.238-15.258c-8.416 0-15.238 6.831-15.238 15.258s6.822 15.258 15.238 15.258zM304.609 401.041c-15.549-4.322-29.663-12.723-40.884-24.337-22.245-23.044-31.908-55.484-25.905-86.967 24.957-20.561 53.516-36.297 84.221-46.396l-47.162 82.679c-5.757 10.018-5.326 22.447 1.112 32.038l28.617 42.982zM192 202.206c0-120.26 150.033-161.502 275.883-174.929 157.363-16.785 254.020 5.141 307.401 26.534 34.509 13.879 57.011 47.501 56.713 84.74v94.839c-45.363-28.335-154.453-73.847-367.236-51.115-136.333 14.498-228.432 52.501-272.759 111.582v-91.652zM370.010 499.268l17.768 26.671c6.092 9 16.45 14.142 27.291 13.549l105.873-6.62-36.57 146.578-210.865 39.669 52.815-211.591 43.687-8.256zM390.095 616.356c8.416 0 15.238-6.831 15.238-15.257s-6.822-15.258-15.238-15.258c-8.416 0-15.238 6.831-15.238 15.258s6.822 15.257 15.238 15.257zM313.904 662.129c0 8.427 6.822 15.258 15.238 15.258s15.238-6.831 15.238-15.258c0-8.426-6.822-15.258-15.238-15.258s-15.238 6.831-15.238 15.258zM492.523 708.969l152.474 127.233-204.954 38.464-152.378-127.187 204.858-38.51zM557.713 829.962c8.414 0 15.236-6.831 15.236-15.257s-6.822-15.258-15.236-15.258c-8.418 0-15.241 6.831-15.241 15.258s6.822 15.257 15.241 15.257zM481.523 768.932c8.414 0 15.236-6.831 15.236-15.258s-6.822-15.258-15.236-15.258c-8.418 0-15.241 6.831-15.241 15.258s6.822 15.258 15.241 15.258zM451.046 845.219c8.414 0 15.236-6.831 15.236-15.258s-6.822-15.257-15.236-15.257c-8.414 0-15.236 6.831-15.236 15.257s6.822 15.258 15.236 15.258zM374.856 784.189c8.416 0 15.238-6.831 15.238-15.258s-6.822-15.258-15.238-15.258c-8.416 0-15.238 6.831-15.238 15.258s6.822 15.258 15.238 15.258z" />
<glyph unicode="&#xe914;" glyph-name="tv-show" d="M512 417.762c32.422 0 58.709 25.57 58.709 57.114s-26.287 57.114-58.709 57.114c-32.422 0-58.709-25.57-58.709-57.114s26.287-57.114 58.709-57.114zM719.211 68.369h-24.021l-24.329 70.874c-49.83-22.349-104.047-33.92-158.916-33.92s-109.087 11.571-158.916 33.92l-24.216-70.874h-24.023c-6.412 0-12.56-2.479-17.094-6.891-4.534-4.407-7.081-10.389-7.081-16.627s2.547-12.22 7.081-16.631c4.534-4.407 10.682-6.886 17.094-6.886h414.421c6.413 0 12.561 2.479 17.092 6.886 4.535 4.412 7.083 10.394 7.083 16.631s-2.547 12.22-7.083 16.627c-4.531 4.412-10.679 6.891-17.092 6.891zM421.187 529.975l-160.091 155.721c-46.678-52.419-74.66-118.129-79.762-187.303h226.357c2.67 11.183 7.231 21.854 13.496 31.582zM602.812 419.78l160.094-155.725c46.677 52.42 74.658 118.131 79.761 187.302h-226.355c-2.671-11.179-7.232-21.85-13.5-31.578zM407.69 451.358h-226.357c5.103-69.171 33.085-134.882 79.762-187.302l160.091 155.725c-6.266 9.728-10.826 20.399-13.496 31.578zM568.636 386.534c-9.993-6.097-20.958-10.53-32.448-13.129v-220.203c71.108 4.962 138.654 32.183 192.542 77.594l-160.094 155.738zM616.311 498.394h226.355c-5.103 69.175-33.084 134.884-79.761 187.303l-160.094-155.721c6.268-9.728 10.829-20.399 13.5-31.582zM295.285 230.797c53.885-45.41 121.432-72.631 192.54-77.594v220.203c-11.49 2.598-22.455 7.031-32.448 13.129l-160.092-155.738zM490.381 753.278c2.010-3.904 5.094-7.188 8.913-9.483s8.218-3.51 12.706-3.51c4.489 0 8.887 1.216 12.706 3.51s6.903 5.579 8.913 9.483l44.894 87.349c1.847 3.585 2.718 7.569 2.53 11.575-0.183 4.005-1.417 7.898-3.584 11.308-2.163 3.41-5.193 6.226-8.789 8.178-3.601 1.952-7.654 2.978-11.776 2.978h-89.788c-4.122 0-8.175-1.025-11.776-2.978-3.597-1.952-6.626-4.768-8.789-8.178-2.167-3.411-3.401-7.303-3.584-11.308-0.188-4.005 0.683-7.989 2.53-11.575l44.894-87.349zM536.175 697.24v-120.945c11.49-2.599 22.455-7.036 32.448-13.129l160.094 155.791c-36.22 30.479-78.81 52.946-124.826 65.848l-26.965-52.557c-8.371-16.393-22.993-28.954-40.751-35.007zM487.825 576.349v120.945c-17.724 6.051-32.32 18.585-40.695 34.94l-27.021 52.598c-46.016-12.902-88.605-35.369-124.823-65.848l160.079-155.764c9.997 6.095 20.966 10.532 32.461 13.129z" />
<glyph unicode="&#xe915;" glyph-name="virtual" d="M85.333 123.78c0-30.391 12.733-57.818 33.15-77.197 11.334-10.765 25.033-19.063 40.25-24 16.183-5.261 32.817 6.741 32.817 23.799v313.83c0 10.065-6.038 19.11-15.283 23.061-37.497 16.017-68.022 34.684-90.933 55.607v-315.102zM832.448 46.383c0-17.058 16.636-29.060 32.819-23.799 15.215 4.937 28.915 13.235 40.247 24 20.42 19.379 33.152 46.805 33.152 77.197v315.102c-22.912-20.924-53.436-39.59-90.935-55.607-9.242-3.951-15.283-13.001-15.283-23.066v-313.826zM938.667 539.82c0-43.129-42.253-82.403-111.535-111.933-26.982-11.499-44.681-37.824-44.681-67.2v-251.456c-73.617 23.415-167.804 37.491-270.451 37.491-102.651 0-196.834-14.076-270.451-37.491v251.473c0 29.376-17.7 55.697-44.683 67.2-69.267 29.508-111.517 68.783-111.517 111.914 0 47.437 51.133 90.234 133.117 120.478-1-9.832-1.484-19.747-1.484-29.745 0-39.86 7.817-78.567 23.2-115.019 14.867-35.187 36.134-66.782 63.217-93.892 27.067-27.123 58.617-48.422 93.75-63.292 36.399-15.424 75.051-23.253 114.851-23.253s78.451 7.829 114.85 23.253c35.132 14.869 66.684 36.169 93.747 63.292 27.085 27.106 48.35 58.705 63.219 93.892 15.381 36.452 23.198 75.161 23.198 115.019 0 9.998-0.482 19.93-1.481 29.761 81.997-30.26 133.133-73.056 133.133-120.493zM372.183 605.517c-5.3-45.785-25.117-88.196-56.7-121.562-25.783 34.615-42.65 76.278-47.233 121.562h103.933zM372.183 655.592h-103.933c4.583 45.283 21.45 86.947 47.233 121.563 31.583-33.365 51.4-75.779 56.7-121.563zM349.383 814.093c37.4 33.267 85.049 55.249 137.618 60.573v-219.075h-64.535c-5.617 59.921-31.283 115.505-73.083 158.502zM422.467 605.517h64.535v-219.076c-52.57 5.325-100.218 27.307-137.618 60.574 41.8 42.995 67.467 98.581 73.083 158.502zM601.532 605.517c5.619-59.921 31.283-115.507 73.084-158.502-37.397-33.267-85.047-55.249-137.617-60.574v219.076h64.533zM601.532 655.592h-64.533v219.075c52.57-5.325 100.22-27.307 137.617-60.573-41.801-42.996-67.465-98.58-73.084-158.502zM651.819 605.517h103.932c-4.582-45.283-21.449-86.946-47.232-121.562-31.586 33.365-51.401 75.778-56.7 121.562zM651.819 655.592c5.299 45.785 25.114 88.198 56.7 121.563 25.783-34.618 42.65-76.28 47.232-121.563h-103.932z" />
<glyph unicode="&#xe916;" glyph-name="xoc-dia" d="M505.050 508.096c111.927 0 217.276-5.504 296.636-15.505 35.354-4.45 64.013-9.609 85.385-15.373l-28.638 75.057-4.271-4.125-77.679 75.009-28.698-27.705 10.598-10.234 23.398 22.589 25.591-24.709-36.194-34.942c-1.677-1.623-3.674-2.909-5.867-3.788-2.197-0.878-4.553-1.33-6.929-1.33-2.372 0-4.727 0.452-6.925 1.33-2.193 0.878-4.19 2.165-5.867 3.788l-36.194 34.942c-1.677 1.623-3.012 3.549-3.921 5.668s-1.378 4.392-1.378 6.686c0 2.294 0.469 4.566 1.378 6.686s2.244 4.046 3.921 5.668l54.289 52.413c1.677 1.623 3.674 2.909 5.871 3.788 2.193 0.878 4.548 1.33 6.925 1.33s4.727-0.452 6.925-1.33c2.193-0.878 4.19-2.165 5.871-3.788l44.279-42.756-18.679 48.965c-10.355 26.908-27.725 50.78-50.436 69.306-22.707 18.526-49.984 31.080-79.189 36.445-119.087 21.645-241.314 21.645-360.402 0-29.205-5.366-56.482-17.919-79.19-36.445s-40.080-42.398-50.433-69.306l-72.195-189.207c21.377 5.756 50.033 10.918 85.387 15.377 79.361 9.993 184.707 15.497 296.631 15.497zM456.064 625.279l54.289 52.414c1.677 1.622 3.674 2.909 5.871 3.788 2.193 0.878 4.548 1.33 6.925 1.33s4.727-0.452 6.925-1.33c2.193-0.878 4.19-2.165 5.871-3.788l77.679-75.004 28.698 27.707-10.603 10.236-23.394-22.59-25.591 24.709 36.19 34.943c1.681 1.622 3.674 2.909 5.871 3.788s4.548 1.33 6.925 1.33c2.377 0 4.727-0.452 6.925-1.33s4.19-2.165 5.871-3.788l36.19-34.943c1.681-1.622 3.012-3.549 3.925-5.668 0.909-2.12 1.374-4.392 1.374-6.686s-0.465-4.566-1.374-6.686c-0.913-2.12-2.244-4.046-3.925-5.668l-54.285-52.414c-1.681-1.623-3.674-2.909-5.871-3.788s-4.548-1.33-6.925-1.33c-2.377 0-4.732 0.452-6.925 1.33-2.197 0.878-4.19 2.165-5.871 3.788l-77.679 75.004-28.698-27.707 10.598-10.236 23.398 22.59 25.591-24.709-36.194-34.943c-1.677-1.623-3.674-2.909-5.867-3.788-2.197-0.878-4.553-1.33-6.929-1.33-2.372 0-4.727 0.452-6.925 1.33-2.193 0.878-4.19 2.165-5.867 3.788l-36.194 34.943c-1.677 1.622-3.012 3.548-3.921 5.668s-1.378 4.392-1.378 6.686c0 2.295 0.469 4.567 1.378 6.686s2.244 4.046 3.921 5.668zM202.732 607.808l54.286 52.413c1.68 1.623 3.675 2.909 5.871 3.788s4.549 1.33 6.925 1.33c2.376 0 4.729-0.452 6.925-1.33s4.19-2.165 5.871-3.788l77.681-75.004 28.697 27.707-10.601 10.236-23.395-22.59-25.591 24.709 36.19 34.942c1.68 1.623 3.675 2.909 5.871 3.788s4.549 1.33 6.925 1.33c2.377 0 4.73-0.452 6.925-1.33s4.19-2.165 5.871-3.788l36.19-34.942c1.681-1.623 3.012-3.549 3.921-5.668 0.913-2.12 1.378-4.392 1.378-6.686s-0.465-4.566-1.378-6.686c-0.909-2.12-2.24-4.046-3.921-5.668l-54.285-52.414c-1.68-1.623-3.675-2.909-5.871-3.788s-4.549-1.33-6.925-1.33c-2.376 0-4.73 0.452-6.925 1.33s-4.19 2.165-5.871 3.788l-77.68 75.004-28.697-27.707 10.601-10.236 23.395 22.591 25.591-24.709-36.19-34.942c-1.681-1.623-3.675-2.909-5.871-3.788s-4.548-1.33-6.925-1.33c-2.377 0-4.73 0.452-6.925 1.33s-4.19 2.165-5.871 3.788l-36.19 34.942c-1.681 1.623-3.014 3.549-3.923 5.668s-1.378 4.392-1.378 6.686c0 2.294 0.468 4.566 1.378 6.686s2.242 4.046 3.923 5.668zM631.718 815.637v45.543c-83.418 17.983-169.916 17.983-253.333 0v-45.543c84.109 10.286 169.225 10.286 253.333 0zM505.050 403.268c9.617 0 19.29 0.051 28.902 0.137 47.292 0.422 20.045-0.137 50.522-0.137 15.236 0 27.247-2.756 57.724-2.756l53.001 8.576c120.691 7.863 177.353 20.834 199.121 29.111-14.025 5.461-45.598 14.067-114.705 21.815-75.558 8.474-173.069 13.141-274.564 13.141-101.492 0-199-4.668-274.562-13.141-69.058-7.744-100.628-16.35-114.678-21.803 14.046-5.461 45.616-14.059 114.678-21.803 75.561-8.474 173.070-13.141 274.562-13.141zM512 374.438c115.076 0 219.597-15.684 295.548-41.041 81.011-27.046 131.119-66.743 131.119-112.678s-50.108-85.632-131.119-112.678c-75.951-25.357-180.471-41.041-295.548-41.041s-219.595 15.684-295.548 41.041c-81.012 27.046-131.119 66.743-131.119 112.678s50.106 85.632 131.119 112.678c75.953 25.357 180.473 41.041 295.548 41.041zM799.044 302.541c-73.143 24.418-174.605 39.522-287.044 39.522s-213.9-15.104-287.042-39.522c-68.087-22.733-110.199-51.802-110.199-81.822s42.112-59.089 110.199-81.818c73.142-24.418 174.603-39.522 287.042-39.522s213.901 15.104 287.044 39.522c68.083 22.729 110.195 51.797 110.195 81.818s-42.112 59.089-110.195 81.822zM908.642 159.697c-72.341-45.342-222.78-76.51-396.642-76.51-173.918 0-324.399 31.189-396.712 76.553 90.839-84.092 234.735-138.406 396.712-138.406 161.941 0 305.801 54.302 396.642 138.364zM685.423 270.153c-44.194 14.754-105.493 23.876-173.423 23.876s-129.231-9.122-173.422-23.876c-41.136-13.734-66.579-31.296-66.579-49.434s25.443-35.699 66.579-49.434c44.191-14.75 105.488-23.876 173.422-23.876s129.229 9.126 173.423 23.876c41.135 13.734 66.577 31.296 66.577 49.434s-25.442 35.699-66.577 49.434z" />
<glyph unicode="&#xe917;" glyph-name="all" d="M512 874.667c-235.838 0-426.667-190.86-426.667-426.667 0-235.84 190.864-426.667 426.667-426.667 235.836 0 426.667 190.861 426.667 426.667 0 235.84-190.865 426.667-426.667 426.667zM436.706 322.509h-50.196v75.294h-50.196v-75.294h-50.196v175.689c0 41.514 33.779 75.293 75.294 75.293 41.519 0 75.294-33.779 75.294-75.293v-175.689zM612.39 322.509h-125.487v250.982h50.193v-200.784h75.294v-50.197zM788.079 322.509h-125.491v250.982h50.197v-200.784h75.294v-50.197zM361.412 523.294c-13.838 0-25.098-11.26-25.098-25.097v-50.197h50.196v50.197c0 13.837-11.259 25.097-25.098 25.097z" />
<glyph unicode="&#xe918;" glyph-name="all-1" d="M384 864h-192c-53.019 0-96-42.981-96-96v-192c0-53.018 42.981-96 96-96h192c53.018 0 96 42.982 96 96v192c0 53.019-42.982 96-96 96zM832 864h-192c-53.018 0-96-42.981-96-96v-192c0-53.018 42.982-96 96-96h192c53.018 0 96 42.982 96 96v192c0 53.019-42.982 96-96 96zM384 416h-192c-53.019 0-96-42.982-96-96v-192c0-53.018 42.981-96 96-96h192c53.018 0 96 42.982 96 96v192c0 53.018-42.982 96-96 96zM736 32c106.039 0 192 85.961 192 192s-85.961 192-192 192c-106.039 0-192-85.961-192-192s85.961-192 192-192z" />
<glyph unicode="&#xe919;" glyph-name="arrow-down" d="M858.667 343.612l-56.457 51.917-248.61-231.066v710.204h-83.2v-710.204l-248.61 231.066-56.457-51.917 346.667-322.278 346.667 322.278z" />
<glyph unicode="&#xe91a;" glyph-name="arrow-left" d="M407.61 101.333l51.919 56.457-231.065 248.61h710.203v83.2h-710.203l231.065 248.61-51.919 56.457-322.277-346.667 322.277-346.667z" />
<glyph unicode="&#xe91b;" glyph-name="arrow-right" d="M616.388 794.667l-51.917-56.457 231.066-248.61h-710.204v-83.2h710.204l-231.066-248.61 51.917-56.457 322.278 346.667-322.278 346.667z" />
<glyph unicode="&#xe91c;" glyph-name="arrows-clockwise" d="M128 524.8v307.2l112.781-112.781c71.155 71.462 167.578 112.781 271.219 112.781 211.738 0 384-172.262 384-384s-172.262-384-384-384c-160.282 0-305.126 101.030-360.461 251.366-7.334 19.93 2.88 42.010 22.771 49.306 19.853 7.258 41.971-2.842 49.306-22.771 44.275-120.307 160.166-201.101 288.384-201.101 169.382 0 307.2 137.818 307.2 307.2s-137.818 307.2-307.2 307.2c-82.906 0-160.013-33.062-216.998-90.202l140.198-140.198h-307.2z" />
<glyph unicode="&#xe91d;" glyph-name="arrow-up" d="M165.333 552.39l56.457-51.919 248.61 231.065v-710.203h83.2v710.203l248.61-231.065 56.457 51.919-346.667 322.277-346.667-322.277z" />
<glyph unicode="&#xe91e;" glyph-name="arrow-up-right" d="M759.245 254.025c14.037 0.009 26.765 5.722 35.981 14.938 9.212 9.212 14.925 21.939 14.933 35.977l0.508 390.942c0.043 28.085-22.703 50.829-50.786 50.786l-390.943-0.507c-28.076-0.019-50.895-22.837-50.916-50.915-0.044-28.084 22.7-50.828 50.784-50.784l273.963 0.347-415.441-415.44c-18.484-18.483-18.684-48.252-0.448-66.487s48.002-18.035 66.486 0.448l415.442 415.441-0.35-273.963c-0.043-28.087 22.699-50.829 50.786-50.782z" />
<glyph unicode="&#xe91f;" glyph-name="arrow-up-right-bold" d="M512 864c-82.278 0-162.706-24.398-231.117-70.109s-121.731-110.681-153.216-186.695c-31.486-76.013-39.724-159.657-23.673-240.352s55.671-154.82 113.85-213.001c58.179-58.18 132.303-97.801 213-113.852 80.695-16.051 164.339-7.812 240.354 23.676 76.011 31.484 140.983 84.804 186.692 153.216 45.713 68.412 70.11 148.838 70.11 231.117-0.115 110.294-43.981 216.038-121.971 294.028s-183.735 121.856-294.029 121.972zM672 384c0-8.486-3.371-16.627-9.374-22.626-5.999-6.003-14.14-9.374-22.626-9.374s-16.627 3.371-22.626 9.374c-6.003 5.999-9.374 14.14-9.374 22.626v114.761l-201.36-201.399c-2.973-2.974-6.503-5.333-10.387-6.942s-8.048-2.436-12.253-2.436c-4.204 0-8.368 0.828-12.253 2.436s-7.414 3.968-10.387 6.942c-2.973 2.974-5.332 6.502-6.941 10.385-1.609 3.887-2.437 8.051-2.437 12.254s0.828 8.367 2.437 12.254c1.609 3.883 3.968 7.411 6.941 10.385l201.4 201.361h-114.761c-8.486 0-16.627 3.372-22.627 9.373s-9.373 14.141-9.373 22.627c0 8.487 3.372 16.626 9.373 22.627s14.141 9.373 22.627 9.373h192c8.486 0 16.627-3.372 22.626-9.373 6.003-6.001 9.374-14.141 9.374-22.627v-192z" />
<glyph unicode="&#xe920;" glyph-name="avatar" d="M512 448c84.156 0 152.38 68.224 152.38 152.381s-68.224 152.381-152.38 152.381c-84.156 0-152.381-68.224-152.381-152.381s68.225-152.381 152.381-152.381zM512 874.667c-235.276 0-426.667-191.39-426.667-426.667 0-120.99 50.895-230.097 131.962-307.81 0.914-0.913 1.524-1.523 2.438-2.436 76.495-71.923 179.2-116.42 292.267-116.42s216.077 44.8 292.57 117.030c1.22 0.913 1.83 1.523 2.743 2.436 80.764 77.713 131.354 186.513 131.354 307.2 0 235.276-191.39 426.667-426.667 426.667zM805.487 230.703c-35.657 89.907-153.6 156.343-293.487 156.343s-257.829-66.436-293.486-156.343c-45.105 60.651-72.229 135.927-72.229 217.297 0 201.752 163.962 365.714 365.714 365.714 201.754 0 365.713-163.962 365.713-365.714 0-81.37-27.123-156.646-72.226-217.297z" />
<glyph unicode="&#xe921;" glyph-name="bank" d="M847.902 157.628h-671.802c-2.976 0-5.433-2.436-5.433-5.38v-82.871c0-2.944 2.457-5.376 5.433-5.376h671.802c2.974 0 5.431 2.432 5.431 5.376v82.871c0 2.944-2.458 5.38-5.431 5.38zM475.183 541.284c2.679-3.209 6.882-6.147 12.612-8.813 18.957-7.881 34.556-1.438 58.829-11.409 17.207-7.070 30.161-20.783 31.279-38.972 0.030-0.538 0.026-1.071-0.009-1.596-1.331-18.347-13.722-31.526-31.223-38.767-24.567-10.266-22.157 0.602-22.157-15.181 0-6.844-5.602-12.386-12.514-12.386s-12.514 5.542-12.514 12.386v7.629c0 0.849-0.644 1.557-1.498 1.638-15.471 1.566-30.182 5.5-44.557 11.934-6.289 2.803-9.092 10.125-6.255 16.354 2.833 6.225 10.231 8.998 16.521 6.191 20.548-9.199 51.221-15.198 73.297-5.837 10.795 4.621 21.444 14.332 12.382 25.242-2.359 2.846-7.147 6.426-12.335 8.525-19.738 7.974-35.017 1.485-58.923 11.422-17.617 7.633-29.978 20.233-31.198 38.659-0.576 8.663 3.691 18.889 9.195 25.487 5.222 6.26 12.587 11.342 22.101 15.241 23.569 10.041 21.265-0.743 21.265 15.129 0 6.841 5.602 12.387 12.514 12.387s12.514-5.545 12.514-12.387v-7.705c0-0.85 0.64-1.556 1.498-1.642 15.949-1.629 30.626-5.454 44.489-11.951 6.238-2.913 8.905-10.279 5.965-16.452-2.944-6.173-10.385-8.815-16.623-5.904-15.019 7.041-31.117 10.101-48.7 10.456-7.364 0.147-16.768-2.008-23.441-4.754-5.581-2.285-9.681-5.027-12.322-8.191-4.356-5.227-4.723-11.305-0.192-16.733zM393.981 632.177c-65.178-64.519-65.178-169.133 0-233.649 65.177-64.521 170.858-64.521 236.035 0 65.178 64.516 65.178 169.131 0 233.649s-170.859 64.519-236.035 0zM796.843 502.963h-91.247c-0.917 0-1.668-0.738-1.668-1.651v-317.261c0-0.909 0.751-1.651 1.668-1.651h91.247c0.917 0 1.668 0.742 1.668 1.651v317.261c0 0.909-0.751 1.651-1.668 1.651zM559.292 184.051v145.011c0 1.075-1.007 1.856-2.061 1.604-29.606-7.078-60.855-7.078-90.462 0-1.054 0.252-2.061-0.529-2.061-1.604v-145.011c0-0.909 0.751-1.651 1.668-1.651h91.247c0.917 0 1.668 0.742 1.668 1.651zM320.071 184.051v317.261c0 0.909-0.748 1.651-1.669 1.651h-91.246c-0.918 0-1.669-0.738-1.669-1.651v-317.261c0-0.909 0.749-1.651 1.669-1.651h91.246c0.92 0 1.669 0.742 1.669 1.651zM647.714 649.693c31.633-31.313 52.275-73.508 55.71-120.422 0.060-0.866 0.785-1.532 1.66-1.532h142.818c2.974 0 5.431 2.432 5.431 5.376v72.276c0 13.935-6.485 25.592-18.394 32.997l-300.949 187.182c-13.781 8.572-30.199 8.572-43.981 0l-300.949-187.182c-11.906-7.405-18.394-19.062-18.394-32.997v-72.276c0-2.944 2.457-5.376 5.433-5.376h142.817c0.876 0 1.598 0.666 1.661 1.532 7.221 98.718 90.454 176.069 191.422 176.069 52.996 0 100.979-21.265 135.714-55.647z" />
<glyph unicode="&#xe922;" glyph-name="CalendarX" d="M780.8 755.2h-38.4v38.4c0 21.112-17.289 38.4-38.4 38.4s-38.4-17.288-38.4-38.4v-38.4h-307.2v38.4c0 21.112-17.288 38.4-38.4 38.4s-38.4-17.288-38.4-38.4v-38.4h-38.4c-63.356 0-115.2-51.844-115.2-115.2v-460.8c0-63.356 51.844-115.2 115.2-115.2h537.6c63.356 0 115.2 51.844 115.2 115.2v460.8c0 63.356-51.844 115.2-115.2 115.2zM654.464 321.664c14.98-14.985 14.98-39.543 0-54.528-7.689-7.292-17.289-11.136-27.264-11.136s-19.575 3.844-27.264 11.136l-87.936 88.316-87.938-88.316c-7.687-7.292-17.287-11.136-27.262-11.136s-19.575 3.844-27.262 11.136c-14.982 14.985-14.982 39.543 0 54.528l88.314 87.936-88.314 87.936c-14.982 14.985-14.982 39.545 0 54.526s39.543 14.982 54.525 0l87.938-88.314 87.936 88.314c14.985 14.982 39.543 14.982 54.528 0 14.98-14.981 14.98-39.542 0-54.526l-88.316-87.936 88.316-87.936z" />
<glyph unicode="&#xe923;" glyph-name="caret-double-right" d="M523.2 64c-9.472-0.004-18.731 2.807-26.611 8.081-7.876 5.274-14.016 12.774-17.643 21.547s-4.574 18.428-2.722 27.742c1.847 9.314 6.413 17.869 13.111 24.58l244.881 245.466c7.411 7.433 13.291 16.252 17.306 25.958 4.011 9.707 6.076 20.113 6.076 30.618 0 10.509-2.065 20.911-6.076 30.622-4.015 9.707-9.894 18.526-17.306 25.954l-244.881 245.467c-4.446 4.459-7.974 9.751-10.381 15.577s-3.648 12.069-3.648 18.374c0 12.734 5.047 24.947 14.029 33.952s21.163 14.063 33.865 14.063c6.289 0 12.518-1.242 18.33-3.655s11.089-5.95 15.539-10.408l244.847-245.499c32.922-33.005 51.418-77.769 51.418-124.446 0-46.673-18.496-91.439-51.418-124.446l-244.847-245.5c-4.45-4.454-9.728-7.987-15.539-10.398s-12.041-3.652-18.33-3.648zM218.535 64c-9.47 0-18.726 2.82-26.599 8.094-7.872 5.278-14.007 12.774-17.629 21.547s-4.567 18.428-2.717 27.738c1.85 9.31 6.413 17.86 13.111 24.572l289.983 290.714c1.489 1.489 2.667 3.251 3.469 5.197 0.806 1.946 1.22 4.028 1.22 6.131s-0.414 4.19-1.22 6.131c-0.802 1.946-1.98 3.712-3.469 5.197l-289.983 290.715c-8.982 9-14.030 21.209-14.033 33.94s5.039 24.942 14.016 33.946c8.977 9.004 21.155 14.065 33.855 14.068s24.879-5.051 33.862-14.051l290.016-290.748c20.89-21.030 32.614-49.502 32.614-79.181s-11.725-58.15-32.614-79.181l-290.016-290.782c-4.448-4.454-9.728-7.987-15.539-10.398s-12.038-3.652-18.327-3.648z" />
<glyph unicode="&#xe924;" glyph-name="caret-down" d="M213.333 571.11l48.692 47.557 249.975-245.879 249.975 245.879 48.691-47.558-298.667-293.776-298.667 293.776z" />
<glyph unicode="&#xe925;" glyph-name="caret-left" d="M635.11 746.667l47.556-48.692-245.879-249.975 245.879-249.975-47.556-48.691-293.777 298.667 293.777 298.667z" />
<glyph unicode="&#xe926;" glyph-name="caret-right" d="M388.89 149.333l-47.557 48.691 245.879 249.975-245.879 249.975 47.557 48.692 293.776-298.667-293.776-298.667z" />
<glyph unicode="&#xe927;" glyph-name="caret-up" d="M810.667 324.89l-48.691-47.556-249.975 245.879-249.975-245.879-48.692 47.556 298.667 293.777 298.667-293.777z" />
<glyph unicode="&#xe928;" glyph-name="casino" d="M208.498 148.48c0.569-0.713 1.137-1.421 1.849-2.133 0.569-0.567 1.28-1.139 1.991-1.566 0 0 0.142-0.282 0.284-0.282 76.516-75.52 181.049-122.313 296.532-122.88 0.427-0.145 0.853-0.145 1.425-0.145 0.427-0.141 0.994-0.141 1.421-0.141s0.994 0 1.421 0.141c0.572 0 0.998 0 1.425 0.145 116.053 0.567 221.154 47.927 297.668 123.874 0.427 0.286 0.713 0.567 0.998 0.853 0.708 0.713 1.28 1.421 1.847 2.133 76.373 77.086 123.307 182.899 123.307 299.52v0.141c0 116.624-47.074 222.437-123.307 299.379-0.567 0.711-1.139 1.422-1.847 1.991-0.145 0.284-0.427 0.569-0.713 0.711 0 0.095-0.047 0.143-0.141 0.143-77.086 76.8-183.467 124.302-300.659 124.302s-222.293-46.933-299.378-123.022c0 0 0-0.143-0.142-0.143-0.711-0.569-1.422-1.137-2.133-1.849s-1.28-1.422-1.849-2.133c0-0.142-0.143-0.142-0.143-0.142-76.089-76.943-123.022-182.756-123.022-299.237v-0.141c0-116.621 46.933-222.293 123.022-299.379 0 0 0.143 0 0.143-0.141zM526.221 50.347v98.133c70.118 3.127 135.825 30.293 187.593 77.367l69.261-69.12c-67.84-63.287-157.867-103.108-256.853-106.381zM803.273 719.218c63.287-67.84 103.108-157.867 106.522-256.852h-98.415c-3.132 70.114-30.293 135.821-77.372 187.59l69.265 69.263zM497.779 845.938v-98.276c-69.973-3.271-135.681-30.435-187.735-77.653l-69.263 69.263c67.84 63.289 157.867 103.253 256.997 106.667zM319.858 640c51.2 50.915 118.896 79.075 190.721 79.502h0.282c0.427-0.142 0.713-0.142 1.139-0.142s0.713 0 1.139 0.142h0.282c71.68-0.427 139.093-28.302 189.867-78.791l0.145-0.143c0.141-0.142 0.427-0.427 0.567-0.569s0.427-0.427 0.427-0.569c50.914-51.058 78.933-119.039 78.933-191.29 0-72.247-28.16-140.8-79.36-192.141l-0.141-0.141c-50.918-50.773-118.473-78.933-190.438-79.36h-0.282c-0.427 0.141-0.713 0.141-1.139 0.141s-0.713 0-1.139-0.141h-0.282c-71.825 0.427-139.521 28.587-190.721 79.501-51.2 51.341-79.36 119.607-79.36 192.141s28.16 140.659 79.36 191.859zM212.48 433.92c3.129-70.114 30.293-135.821 77.511-187.874l-69.263-69.265c-63.289 67.84-103.253 157.867-106.524 257.139h98.275zM448.141 329.527c12.518 0 25.033 2.133 36.838 6.545l-23.753-64.853c-1.566-4.412-0.994-9.246 1.707-13.086 2.701-3.699 6.967-5.973 11.661-5.973h74.812c4.693 0 9.101 2.274 11.661 5.973 2.701 3.84 3.273 8.674 1.707 13.086l-23.753 64.853c37.833-13.939 82.065-5.692 112.073 24.461 40.819 40.674 41.387 107.52 1.139 149.047l-130.133 130.135c-5.406 5.405-14.793 5.405-20.198 0l-129.99-130.135c-0.095 0-0.19-0.047-0.285-0.141-19.2-19.913-29.867-46.221-29.867-73.813 0.142-28.446 11.093-55.181 31.147-75.093 20.622-20.621 47.929-31.006 75.234-31.006z" />
<glyph unicode="&#xe929;" glyph-name="check" d="M133.362 453.675l51.712 54.797c7.15 7.573 18.724 7.573 25.874 0l178.413-189.056c7.131-7.573 18.725-7.573 25.856 0l397.839 421.569c7.151 7.576 18.726 7.576 25.873 0l51.712-54.796c3.439-3.643 5.359-8.564 5.359-13.699 0-5.154-1.92-10.076-5.359-13.718l-475.424-503.781c-3.419-3.622-8.082-5.658-12.928-5.658s-9.509 2.035-12.928 5.658l-255.998 271.266c-7.15 7.578-7.15 19.84 0 27.418z" />
<glyph unicode="&#xe92a;" glyph-name="check-bold" d="M412.091 129.173c-8.145-8.196-19.259-12.766-30.803-12.766s-22.658 4.57-30.803 12.766l-246.004 246.042c-25.53 25.532-25.53 66.927 0 92.412l30.803 30.81c25.538 25.532 66.888 25.532 92.418 0l153.586-153.591 415.013 415.018c25.536 25.53 66.927 25.53 92.416 0l30.805-30.811c25.527-25.53 25.527-66.92 0-92.41l-507.431-507.468z" />
<glyph unicode="&#xe92b;" glyph-name="check-circle-fill" d="M512 864c-82.278 0-162.706-24.398-231.117-70.109s-121.731-110.681-153.216-186.695c-31.486-76.013-39.724-159.657-23.673-240.352s55.671-154.82 113.85-213.001c58.179-58.18 132.303-97.801 213-113.852 80.695-16.051 164.339-7.812 240.354 23.676 76.011 31.484 140.983 84.804 186.692 153.216 45.713 68.412 70.11 148.838 70.11 231.117-0.115 110.294-43.981 216.038-121.971 294.028s-183.735 121.856-294.029 121.972zM694.639 521.361l-224-224c-2.97-2.978-6.498-5.338-10.385-6.946-3.883-1.613-8.047-2.441-12.254-2.441s-8.371 0.828-12.254 2.441c-3.883 1.609-7.415 3.968-10.386 6.946l-96 96c-6.004 6.003-9.378 14.148-9.378 22.639s3.373 16.636 9.378 22.639c6.004 6.007 14.148 9.378 22.64 9.378s16.636-3.371 22.64-9.378l73.36-73.399 201.361 201.401c2.974 2.973 6.502 5.331 10.385 6.941 3.887 1.609 8.051 2.437 12.254 2.437 4.207 0 8.367-0.828 12.254-2.437 3.883-1.609 7.411-3.968 10.385-6.941s5.333-6.503 6.942-10.388c1.609-3.884 2.436-8.048 2.436-12.253s-0.828-8.368-2.436-12.254c-1.609-3.883-3.968-7.411-6.942-10.385z" />
<glyph unicode="&#xe92c;" glyph-name="check-dubble" d="M722.47 681.020c16.465-15.25 17.446-40.96 2.197-57.424l-365.968-395.107c-29.968-32.354-79.939-32.354-109.906 0l-152.637 164.791c-15.25 16.465-14.266 42.172 2.199 57.425 16.464 15.249 42.174 14.263 57.424-2.202l147.966-159.748 361.303 390.066c15.249 16.465 40.96 17.449 57.421 2.199zM925.666 681.020c16.461-15.25 17.446-40.96 2.197-57.424l-365.973-395.107c-15.249-16.461-40.96-17.451-57.425-2.202-16.465 15.253-17.446 40.96-2.197 57.429l365.973 395.105c15.249 16.465 40.96 17.449 57.425 2.199z" />
<glyph unicode="&#xe92d;" glyph-name="Clock" d="M792.538 603.235l15.002 14.978c6.763 6.752 6.763 17.699 0 24.451l-31.919 31.869c-6.763 6.752-17.724 6.752-24.486 0l-15.002-14.978c-51.725 41.443-115.153 68.859-184.333 76.51v82.249h-79.821v-82.036c-179.223-19.977-319.281-171.935-319.281-356.198 0-206.225 175.414-372.655 385.286-357.824 175.765 12.416 318.148 153.455 332.151 328.828 7.629 95.539-22.844 183.992-77.598 252.152zM636.378 340.126h-143.949c-11.294 0-20.45 9.139-20.45 20.416v198.259c0 11.277 9.156 20.418 20.45 20.418h38.921c11.294 0 20.45-9.141 20.45-20.418v-138.978h84.578c11.294 0 20.45-9.143 20.45-20.42v-38.861c0-11.277-9.156-20.416-20.45-20.416zM618.671 874.667h-213.348c-8.951 0-16.208-7.245-16.208-16.183v-59.551c0-8.937 7.256-16.183 16.208-16.183h213.348c8.951 0 16.205 7.246 16.205 16.183v59.551c0 8.938-7.253 16.183-16.205 16.183z" />
<glyph unicode="&#xe92e;" glyph-name="ClockCountdown" d="M395.636 704h29.091v-25.031c57.244 14.452 117.301 14.452 174.547 0v25.031h29.090c7.714 0 15.113 2.997 20.57 8.331s8.521 12.57 8.521 20.113v113.777c0 7.544-3.063 14.779-8.521 20.113s-12.855 8.331-20.57 8.331h-232.728c-7.715 0-15.115-2.997-20.57-8.331s-8.521-12.57-8.521-20.113v-113.777c0-7.544 3.065-14.779 8.521-20.113s12.855-8.331 20.57-8.331zM512 647.111c-63.292 0-125.159-18.351-177.783-52.731s-93.639-83.246-117.859-140.419c-24.22-57.173-30.557-120.085-18.21-180.779 12.347-60.698 42.825-116.446 87.577-160.205s101.771-73.557 163.844-85.632c62.076-12.070 126.417-5.875 184.887 17.805 58.475 23.684 108.45 63.787 143.612 115.243 35.162 51.452 53.931 111.945 53.931 173.828 0 82.987-33.715 162.569-93.726 221.247s-141.406 91.643-226.274 91.643zM654.255 264.533c-2.419-4.689-6.118-8.636-10.688-11.396s-9.83-4.233-15.202-4.25c-4.565-0.051-9.067 1.024-13.090 3.132l-116.365 56.887c-4.8 2.364-8.832 5.982-11.657 10.449s-4.326 9.613-4.343 14.865v113.779c0 7.543 3.063 14.78 8.521 20.113 5.453 5.333 12.855 8.333 20.57 8.333s15.117-2.999 20.57-8.333c5.457-5.333 8.521-12.57 8.521-20.113v-96.141l100.365-49.212c6.852-3.409 12.045-9.331 14.443-16.474s1.809-14.925-1.643-21.641z" />
<glyph unicode="&#xe92f;" glyph-name="close" d="M896 771.66l-60.339 60.34-323.661-323.674-323.66 323.674-60.34-60.34 323.661-323.66-323.661-323.661 60.34-60.339 323.66 323.661 323.661-323.661 60.339 60.339-323.661 323.661 323.661 323.66z" />
<glyph unicode="&#xe930;" glyph-name="coins" d="M182.806 305.779c-30.281 0-54.806 25.455-54.806 56.887v28.446c0 31.428 24.526 56.887 54.806 56.887h176.805c-7.427-27.166-11.674-55.723-11.674-85.333 0-19.456 1.946-38.4 5.234-56.887h-170.365zM237.612 647.111h286.91c27.789 13.198 57.766 22.215 89.306 26.083 5.538 8.903 8.853 19.427 8.853 30.805v28.445c0 31.431-24.525 56.889-54.805 56.889h-330.264c-30.281 0-54.806-25.458-54.806-56.889v-28.445c0-31.431 24.526-56.889 54.806-56.889zM237.612 476.446h131.261c21.813 57.712 59.547 107.063 107.722 142.221h-238.983c-30.281 0-54.806-25.458-54.806-56.889v-28.445c0-31.433 24.526-56.887 54.806-56.887zM237.612 277.333c-30.281 0-54.806-25.459-54.806-56.887v-28.446c0-31.433 24.526-56.887 54.806-56.887h205.498c-39.133 38.255-68.4 87.095-83.499 142.221h-121.999zM896 362.667c0-141.141-110.652-256-246.626-256s-246.63 114.859-246.63 256c0 141.141 110.656 256 246.63 256s246.626-114.859 246.626-256zM621.969 405.333c0 7.851 6.14 14.221 13.7 14.221h66.893c15.125 0 27.401 12.745 27.401 28.446s-12.275 28.446-27.401 28.446h-25.788v28.442c0 15.701-12.275 28.446-27.401 28.446-15.13 0-27.405-12.745-27.405-28.446v-28.442c0-0.512 0.247-0.913 0.273-1.425-31.347-6.511-55.078-35.268-55.078-69.687 0-39.198 30.746-71.113 68.506-71.113h25.788c7.565 0 13.7-6.37 13.7-15.471 0-7.851-6.135-14.225-13.7-14.225h-66.893c-15.125 0-27.401-12.74-27.401-28.442s12.275-28.446 27.401-28.446h27.405v-27.191c0-15.701 12.275-28.446 27.405-28.446 15.125 0 27.401 12.745 27.401 28.446v28.442c0 0.23-0.111 0.427-0.137 0.657 30.473 7.223 53.325 35.61 53.325 70.455 0 39.198-30.746 71.113-68.506 71.113h-25.788c-7.561 0-13.7 6.37-13.7 14.221z" />
<glyph unicode="&#xe931;" glyph-name="collapse" d="M85.333 192c0 80.452 0 120.678 24.994 145.673s65.22 24.994 145.673 24.994c80.453 0 120.68 0 145.673-24.994s24.994-65.22 24.994-145.673c0-80.452 0-120.678-24.994-145.673s-65.22-24.994-145.673-24.994c-80.453 0-120.68 0-145.673 24.994s-24.994 65.22-24.994 145.673zM147.817 812.183c62.484 62.484 163.050 62.484 364.183 62.484 201.131 0 301.7 0 364.181-62.484 62.485-62.484 62.485-163.050 62.485-364.183 0-201.131 0-301.7-62.485-364.181-62.481-62.485-163.051-62.485-364.181-62.485-16.879 0-33.045 0-48.546 0.038 14.217 21.679 20.437 45.564 23.518 68.467 3.703 27.546 3.699 61.406 3.695 98.342v7.637c0.004 36.932 0.009 70.797-3.695 98.342-4.079 30.336-13.675 62.396-40.043 88.768-26.371 26.368-58.432 35.964-88.767 40.043-27.546 3.703-61.41 3.699-98.343 3.695h-7.637c-36.934 0.004-70.797 0.009-98.343-3.695-22.903-3.081-46.79-9.306-68.468-23.518-0.037 15.497-0.037 31.667-0.037 48.546 0 201.133 0 301.699 62.484 364.183zM672 416c17.673 0 32 14.327 32 32s-14.327 32-32 32h-82.743l158.703 158.706c12.497 12.497 12.497 32.758 0 45.255s-32.755 12.497-45.252 0l-158.707-158.704v82.743c0 17.673-14.327 32-32 32s-32-14.327-32-32v-160c0-17.673 14.327-32 32-32h160z" />
<glyph unicode="&#xe932;" glyph-name="copy" d="M853.333 763.429v-466.285c0-9.007-1.839-17.924-5.414-26.24-3.571-8.32-8.811-15.881-15.415-22.246-6.601-6.37-14.443-11.422-23.070-14.865-8.627-3.447-17.873-5.222-27.213-5.222h-42.667v370.287c-0.073 32.713-13.585 64.066-37.572 87.197s-56.503 36.159-90.428 36.231h-270.221v41.143c0 18.186 7.492 35.628 20.828 48.487s31.423 20.084 50.283 20.084h369.776c18.863 0 36.949-7.224 50.283-20.084 13.338-12.86 20.83-30.301 20.83-48.487zM611.554 667.429h-369.776c-18.86 0-36.947-7.225-50.283-20.084s-20.828-30.301-20.828-48.488v-466.287c0-18.185 7.492-35.627 20.828-48.486s31.423-20.083 50.283-20.083h369.776c18.863 0 36.949 7.223 50.283 20.083 13.338 12.86 20.83 30.302 20.83 48.486v466.287c0 18.187-7.492 35.628-20.83 48.488-13.333 12.859-31.42 20.084-50.283 20.084z" />
<glyph unicode="&#xe933;" glyph-name="crypto" d="M566.579 564.221c-8.742 8.742-20.847 14.121-34.295 14.121h-72.845v-97.28h72.845c42.769 0 65.161 51.507 34.295 83.159zM459.439 433.993v-114.991h86.071c51.554 0 76.838 62.694 40.572 98.176-22.417 22.417-42.231 16.815-126.643 16.815zM938.667 447.889c0 235.803-190.976 426.778-426.556 426.778s-426.778-190.974-426.778-426.778c0-235.58 191.199-426.556 426.778-426.556s426.556 190.976 426.556 426.556zM673.946 296.589c-19.051-19.277-45.726-31.159-75.089-31.159h-57.382v-71.053h-48.862v71.053h-35.191v-71.053h-48.865v71.053h-89.659v48.64h54.468v267.635h-54.468v48.864h89.659v71.055h48.865v-71.055h35.191v71.055h48.862v-71.055h56.486c42.142 0 76.211-34.071 76.211-76.21 0-21.072-8.516-40.123-22.191-54.019-13.675-13.449-32.503-21.969-53.124-22.191 58.726 0 106.249-47.744 106.249-106.47 0-29.363-11.883-56.038-31.159-75.089z" />
<glyph unicode="&#xe934;" glyph-name="currency-circle-dollar" d="M512 874.667c-235.65 0-426.667-191.017-426.667-426.667 0-235.648 191.017-426.667 426.667-426.667 235.635 0 426.667 191.019 426.667 426.667 0 235.65-191.019 426.667-426.667 426.667zM486.268 514.466c2.53-5.7 6.967-10.901 13.265-15.633 6.302-4.732 14.985-9.549 26.018-14.451 26.965-11.733 49.297-23.215 66.999-34.415 17.681-11.217 30.865-24.051 39.548-38.498 8.67-14.451 13.001-32.452 13.001-54.003 0-30.298-9.634-54.733-28.898-73.297-19.268-18.569-45.099-29.517-77.517-32.853v-32.183c0-11.678-9.468-21.15-21.15-21.15s-21.15 9.472-21.15 21.15v31.667c-22.95 2.283-43.452 8.316-61.483 18.133-18.051 9.801-32.185 23.684-42.435 41.651-10.25 17.95-15.2 40.252-14.85 66.867l0.533 1.314h90.117c0-14.182 2.099-25.715 6.302-34.547 4.198-8.849 9.98-15.334 17.331-19.452s15.851-6.165 25.485-6.165c7.881 0 14.447 1.617 19.699 4.868 5.248 3.23 9.199 7.748 11.814 13.53 2.637 5.786 3.934 12.433 3.934 19.968 0 8.934-1.365 16.465-4.066 22.601-2.718 6.131-7.181 11.601-13.397 16.418s-14.767 9.583-25.617 14.315c-27.337 10.85-49.783 21.717-67.401 32.585-17.601 10.85-30.618 23.548-39.018 38.097-8.4 14.537-12.617 32.751-12.617 54.652 0 29.766 10.067 54.25 30.217 73.433 20.134 19.183 47.035 30.35 80.665 33.5v34.417c0 11.607 9.412 21.017 21.018 21.017 11.61 0 21.018-9.41 21.018-21.017v-35.733c31.535-4.733 56.533-17.7 75.017-38.883 18.483-21.2 27.452-48.267 26.935-81.185l0.781-2.099h-91.166c0 18.734-3.55 32.617-10.633 41.651-7.1 9.017-16.333 13.533-27.716 13.533s-20.403-3.683-26.018-11.033c-5.598-7.35-8.401-16.9-8.401-28.633 0-7.718 1.267-14.417 3.819-20.1l0.017-0.034z" />
<glyph unicode="&#xe935;" glyph-name="digital-wallet" d="M838.49 98.513c0-17.199-14.788-31.181-33.101-31.181-12.983 0-24.269 7.083-29.683 17.434h-85.359c-8.068 0-14.596 6.131-14.596 13.747v105.062h-88.316v-123.076c10.935-5.103 18.453-15.684 18.453-27.968 0-17.25-14.793-31.181-33.101-31.181-18.257 0-33.101 13.931-33.101 31.181 0 12.284 7.573 22.865 18.505 27.968v123.059h-107.174v-123.076c10.935-5.103 18.453-15.684 18.453-27.968 0-17.25-14.788-31.181-33.101-31.181-18.256 0-33.099 13.931-33.099 31.181 0 12.284 7.572 22.865 18.505 27.968v123.059h-88.314v-105.062c0-7.599-6.563-13.747-14.648-13.747h-85.36c-5.361-10.351-16.648-17.434-29.686-17.434-18.257 0-33.1 13.982-33.1 31.181 0 17.25 14.843 31.185 33.1 31.185 13.038 0 24.325-7.083 29.686-17.382h70.764v91.277h-61.99c-25.316 0-45.98 19.516-45.98 43.366v406.884c0 18.849 8.12 35.948 21.318 48.332 13.145 12.383 31.296 20.082 51.251 20.082h56.913c2.654-9.633 6.369-18.849 10.986-27.549h-67.899c-11.888 0-22.768-4.583-30.588-11.999-7.873-7.417-12.791-17.616-12.791-28.866 0-11.2 4.918-21.399 12.791-28.815 7.82-7.417 18.7-12 30.588-12h452.241v81.68h-111.279c4.617 8.7 8.333 17.9 10.987 27.549h114.884c8.068 0 14.652-6.183 14.652-13.799v-95.43h16.751c25.28 0 45.982-19.516 45.982-43.315v-71.946h-142.626c-56.311 0-102.255-43.281-102.255-96.329 0-53.001 45.943-96.282 102.255-96.282h142.626v-58.146c0-23.851-20.719-43.366-45.982-43.366h-62.025v-91.281h70.711c5.414 10.3 16.7 17.382 29.687 17.382 18.257-0.017 33.062-13.948 33.062-31.198zM853.333 449.301v-95.765c0-11.482-9.98-20.881-22.165-20.881h-160.781c-40.175 0-73.011 30.95-73.011 68.732 0 37.845 32.853 68.779 73.011 68.779h160.781c12.186 0 22.165-9.399 22.165-20.864zM705.489 401.387c0 12.096-10.475 21.914-23.266 21.914-12.787 0-23.211-9.83-23.211-21.914 0-12.049 10.441-21.867 23.211-21.867 12.791 0 23.266 9.818 23.266 21.867zM349.984 758.588c0 64.114 55.214 116.079 123.27 116.079 68.062 0 123.221-51.965 123.221-116.079s-55.159-116.079-123.221-116.079c-68.056 0-123.27 51.965-123.27 116.079zM427.26 787.070c0-11.766 5.359-22.432 14.101-30.149 6.827-6.050 15.744-10.249 25.634-11.616 1.254-0.334 2.564-0.517 3.857-0.517h1.553c5.060 0 9.536-1.75 12.74-4.583 3.008-2.65 4.864-6.233 4.864-10.15 0-3.866-1.856-7.466-4.864-10.116-3.204-2.833-7.68-4.633-12.74-4.633-4.015 0-7.676 1.083-10.577 2.983-2.867 1.85-5.060 4.4-6.208 7.366-2.654 7.183-10.987 10.916-18.611 8.416-7.573-2.5-11.537-10.4-8.883-17.533 3.204-8.5 9.378-15.833 17.357-20.933 3.767-2.417 7.923-4.35 12.331-5.667v-7.883c0-7.599 6.528-13.799 14.592-13.799 8.068 0 14.652 6.183 14.652 13.799v7.883c6.861 2.033 13.035 5.533 18.095 9.967 8.67 7.7 14.050 18.383 14.050 30.132 0 11.816-5.363 22.432-14.050 30.149-6.861 6.1-15.795 10.3-25.668 11.666-1.203 0.283-2.513 0.466-3.857 0.466h-1.557c-5.005 0-9.536 1.75-12.736 4.633-3.008 2.65-4.813 6.233-4.813 10.116 0 3.917 1.805 7.517 4.813 10.15 3.2 2.833 7.731 4.583 12.736 4.583 4.015 0 7.68-1.083 10.633-2.983 2.867-1.8 5.060-4.4 6.174-7.366 2.654-7.133 10.987-10.916 18.611-8.367 7.573 2.5 11.588 10.35 8.883 17.533-3.204 8.5-9.323 15.783-17.357 20.933-3.767 2.417-7.923 4.3-12.331 5.616v7.933c0 7.6-6.528 13.75-14.596 13.75-8.064 0-14.592-6.15-14.592-13.75v-7.883c-6.865-2.083-13.094-5.533-18.099-10.016-8.759-7.683-14.135-18.366-14.135-30.132z" />
<glyph unicode="&#xe936;" glyph-name="event" d="M204.151 478.763h41.827v-168.93c-24.327-8.256-43.35-28.151-50.477-53.056h151.148c-7.127 24.905-26.15 44.8-50.477 53.056v108.826c53.839-54.234 137.487-87.889 209.137-87.889 71.667 0 155.311 33.668 209.139 87.889v-108.826c-24.329-8.256-43.349-28.151-50.479-53.056h151.147c-7.125 24.905-26.15 44.8-50.475 53.056v168.93h41.826c13.854 0 25.097 11.302 25.097 25.225 0 13.926-11.243 25.229-25.097 25.229h-10.991c48.725 49.557 13.931 134.536-55.932 134.536-69.867 0-104.657-84.981-55.932-134.536h-10.995c-13.85 0-25.097-11.302-25.097-25.229 0-13.922 11.247-25.225 25.097-25.225h26.722c-14.942-21.999-37.295-42.398-65.451-59.349-80.721-48.597-169.916-52.527-257.158 0-28.158 16.951-50.511 37.35-65.452 59.349h26.72c13.853 0 25.097 11.302 25.097 25.225 0 13.926-11.243 25.229-25.097 25.229h-10.992c48.726 49.557 13.93 134.536-55.932 134.536-69.868 0-104.655-84.981-55.932-134.536h-10.992c-13.853 0-25.097-11.302-25.097-25.229 0-13.922 11.243-25.225 25.097-25.225zM932.203 63.428c-130.931 146.223-108.058 121.182-129.079 142.878-0.137 0.017-598.972 0.017-598.972 0.017-16.451-23.010 3.246 2.415-113.286-144.004-13.124-16.491-1.42-40.986 19.592-40.986h803.091c21.679 0 33.148 25.903 18.654 42.095zM426.106 697.454l-11.612-68.11c-3.527-20.578 18.005-36.312 36.407-26.605l60.851 32.171c66.995-35.41 64.277-35.064 72.529-35.064 15.484 0 27.396 14.019 24.742 29.498l-11.627 68.11 49.242 48.232c14.865 14.579 6.66 39.998-13.905 43.035l-68.045 9.939-30.434 61.955c-9.139 18.697-35.776 18.775-45.005 0l-30.417-61.955-68.047-9.939c-20.553-3.036-28.783-28.447-13.903-43.035l49.223-48.232z" />
<glyph unicode="&#xe937;" glyph-name="eye" d="M321.675 448.009c0 100.873 85.325 182.955 190.338 182.955 104.905 0 190.229-82.080 190.229-182.955 0-100.894-85.325-182.938-190.229-182.938-105.015 0-190.338 82.044-190.338 182.938zM90.256 465.463c-6.563-11.413-6.563-23.492 0-34.918 85.213-147.14 246.808-259.878 421.757-259.878 174.835 0 336.435 112.738 421.645 259.878 6.677 11.426 6.677 23.505 0 34.918-85.21 147.142-246.805 259.87-421.645 259.87-174.949 0-336.544-112.728-421.757-259.87zM512.013 571.005c-70.613 0-127.987-55.17-127.987-122.997 0-67.823 57.373-122.991 127.987-122.991 70.502 0 127.876 55.168 127.876 122.991 0 67.827-57.374 122.997-127.876 122.997z" />
<glyph unicode="&#xe938;" glyph-name="eye-slash" d="M505.506 573.215l122.15-113.179 0.585 5.926c0 59.465-52.16 107.791-116.339 107.791l-6.396-0.539zM511.902 645.613c107.029 0 193.894-80.483 193.894-179.65 0-23.177-5.039-45.269-13.764-65.57l113.429-105.097c58.556 45.274 104.704 103.838 133.205 170.667-67.281 157.732-232.674 269.474-426.761 269.474-54.293 0-106.255-8.982-154.535-25.15l83.764-77.428c21.905 7.904 45.756 12.754 70.767 12.754zM124.112 743.523l106.061-98.269c-63.985-46.349-114.592-107.97-144.84-179.291 67.088-157.73 232.674-269.47 426.569-269.47 60.109 0 117.5 10.778 170.048 30.357l129.523-120.183 49.442 45.632-687.36 637.035-49.443-45.811zM338.561 545.010l59.913-55.512c-1.745-7.727-2.909-15.45-2.909-23.535 0-59.465 52.157-107.789 116.336-107.789 8.725 0 17.062 1.079 25.207 2.697l59.913-55.514c-25.788-11.857-54.481-19.042-85.12-19.042-107.029 0-193.895 80.482-193.895 179.648 0 28.386 7.757 54.976 20.554 79.047z" />
<glyph unicode="&#xe939;" glyph-name="facebook" d="M832 874.667h-640c-58.827 0-106.667-47.84-106.667-106.667v-640c0-58.825 47.84-106.667 106.667-106.667h320v293.333h-106.667v133.333h106.667v106.667c0 88.373 71.629 160 160 160h106.667v-133.333h-53.333c-29.44 0-53.333 2.773-53.333-26.667v-106.667h133.333l-53.333-133.333h-80v-293.333h160c58.825 0 106.667 47.842 106.667 106.667v640c0 58.827-47.842 106.667-106.667 106.667z" />
<glyph unicode="&#xe93a;" glyph-name="filter" d="M816.265 832h-608.528c-15.448-0.013-30.561-4.772-43.503-13.701s-23.159-21.642-29.41-36.598c-6.25-14.956-8.266-31.511-5.801-47.656s9.302-31.185 19.683-43.297l263.723-307.051v-289.579c0.002-5.662 1.511-11.204 4.354-16s6.905-8.644 11.719-11.106c3.849-2.010 8.085-3.038 12.378-3.012 6.464 0.004 12.736 2.342 17.779 6.626l142.246 120.469c3.324 2.82 6.012 6.396 7.859 10.462s2.807 8.521 2.807 13.030v169.109l263.723 307.051c10.381 12.111 17.22 27.152 19.686 43.297 2.462 16.145 0.448 32.7-5.803 47.656s-16.469 27.67-29.41 36.598c-12.945 8.929-28.058 13.688-43.503 13.701z" />
</font>
</defs>
</svg>
